<?xml version="1.0" standalone="no"?>
<!DOCTYPE svg PUBLIC "-//W3C//DTD SVG 1.1//EN" "http://www.w3.org/Graphics/SVG/1.1/DTD/svg11.dtd" >
<svg xmlns="http://www.w3.org/2000/svg">
<metadata>Generated by IcoMoon</metadata>
<defs>
<font id="icomoon" horiz-adv-x="1024">
<font-face units-per-em="1024" ascent="896" descent="-128" />
<missing-glyph horiz-adv-x="1024" />
<glyph unicode="&#x20;" horiz-adv-x="400" d="" />
<glyph unicode="&#xe006;" glyph-name="mobile3" d="M48-128h448c8.832 0 16 7.168 16 16s-7.168 16-16 16h-448c-8.832 0-16 7.168-16 16v928c0 8.832 7.168 16 16 16h672c8.832 0 16-7.168 16-16v-160c0-8.832 7.168-16 16-16s16 7.168 16 16v160c0 26.464-21.536 48-48 48h-672c-26.464 0-48-21.536-48-48v-928c0-26.464 21.536-48 48-48zM576 560v-640c0-26.464 21.536-48 48-48h352c26.464 0 48 21.536 48 48v640c0 26.464-21.536 48-48 48h-352c-26.464 0-48-21.536-48-48zM992 560v-640c0-8.832-7.168-16-16-16h-352c-8.832 0-16 7.168-16 16v640c0 8.832 7.168 16 16 16h352c8.832 0 16-7.168 16-16zM352 0c0-17.673 14.327-32 32-32s32 14.327 32 32c0 17.673-14.327 32-32 32s-32-14.327-32-32zM768 0c0-17.673 14.327-32 32-32s32 14.327 32 32c0 17.673-14.327 32-32 32s-32-14.327-32-32z" />
<glyph unicode="&#xe007;" glyph-name="laptop4" horiz-adv-x="1344" d="M112 64c8.832 0 16 7.168 16 16v752c0 19.136 12.864 32 32 32h1024c18.24 0 32-14.976 32-34.848v-749.152c0-8.832 7.168-16 16-16s16 7.168 16 16v749.152c0 37.504-28.096 66.848-64 66.848h-1024c-37.088 0-64-26.912-64-64v-752c0-8.832 7.168-16 16-16zM208 800c-8.832 0-16-7.168-16-16v-704c0-8.832 7.168-16 16-16h928c8.832 0 16 7.168 16 16v704c0 8.832-7.168 16-16 16h-928zM1120 96h-896v672h896v-672zM1328 0h-1312c-8.832 0-16-7.168-16-16v-37.6c0-38.336 45.056-74.4 80-74.4h1184c36.64 0 80 43.36 80 80v32c0 8.832-7.168 16-16 16zM1312-48c0-18.848-29.152-48-48-48h-1184c-20.192 0-48 24.576-48 42.4v21.6h1280v-16z" />
<glyph unicode="&#xe008;" glyph-name="desktop2" horiz-adv-x="1248" d="M48 96h560v-48c0-8.832 7.168-16 16-16s16 7.168 16 16v48h560c26.464 0 48 21.536 48 48v704c0 26.464-21.536 48-48 48h-1152c-26.464 0-48-21.536-48-48v-704c0-26.464 21.536-48 48-48zM32 848c0 8.832 7.168 16 16 16h1152c8.832 0 16-7.168 16-16v-704c0-8.832-7.168-16-16-16h-1152c-8.832 0-16 7.168-16 16v704zM112 192h1024c8.832 0 16 7.168 16 16v576c0 8.832-7.168 16-16 16h-1024c-8.832 0-16-7.168-16-16v-576c0-8.832 7.168-16 16-16zM128 768h992v-544h-992v544zM448 0c-36.48 0-64-27.52-64-64v-48c0-8.832 7.168-16 16-16h448c8.832 0 16 7.168 16 16v45.6c0 37.216-28.096 66.4-64 66.4h-352zM832-66.4v-29.6h-416v32c0 18.848 13.152 32 32 32h352c18.24 0 32-14.784 32-34.4z" />
<glyph unicode="&#xe009;" glyph-name="tablet4" horiz-adv-x="800" d="M48-128h704c26.464 0 48 21.536 48 48v928c0 26.464-21.536 48-48 48h-704c-26.464 0-48-21.536-48-48v-928c0-26.464 21.536-48 48-48zM32 848c0 8.832 7.168 16 16 16h704c8.832 0 16-7.168 16-16v-928c0-8.832-7.168-16-16-16h-704c-8.832 0-16 7.168-16 16v928zM112 32h576c8.832 0 16 7.168 16 16v736c0 8.832-7.168 16-16 16h-576c-8.832 0-16-7.168-16-16v-736c0-8.832 7.168-16 16-16zM128 768h544v-704h-544v704zM384-32c0-17.673 14.327-32 32-32s32 14.327 32 32c0 17.673-14.327 32-32 32s-32-14.327-32-32z" />
<glyph unicode="&#xe00a;" glyph-name="phone4" horiz-adv-x="608" d="M48-128h512c26.464 0 48 21.536 48 48v928c0 26.464-21.536 48-48 48h-512c-26.464 0-48-21.536-48-48v-928c0-26.464 21.536-48 48-48zM32 848c0 8.832 7.168 16 16 16h512c8.832 0 16-7.168 16-16v-928c0-8.832-7.168-16-16-16h-512c-8.832 0-16 7.168-16 16v928zM80 32h448c8.832 0 16 7.168 16 16v672c0 8.832-7.168 16-16 16h-448c-8.832 0-16-7.168-16-16v-672c0-8.832 7.168-16 16-16zM96 704h416v-640h-416v640zM288-32c0-17.673 14.327-32 32-32s32 14.327 32 32c0 17.673-14.327 32-32 32s-32-14.327-32-32zM240 768h128c8.832 0 16 7.168 16 16s-7.168 16-16 16h-128c-8.832 0-16-7.168-16-16s7.168-16 16-16z" />
<glyph unicode="&#xe00b;" glyph-name="document" horiz-adv-x="768" d="M48-128h672c26.464 0 48 21.536 48 48v672c0 0.544-0.256 0.992-0.288 1.504-0.064 0.736-0.256 1.376-0.416 2.080-0.544 2.272-1.472 4.32-2.88 6.112-0.224 0.288-0.192 0.64-0.416 0.928l-256 288c-0.096 0.096-0.224 0.096-0.32 0.192-1.92 2.048-4.352 3.456-7.136 4.288-0.608 0.192-1.152 0.256-1.792 0.352-0.928 0.16-1.792 0.544-2.752 0.544h-448c-26.464 0-48-21.536-48-48v-928c0-26.464 21.536-48 48-48zM512 837.92l204.384-229.92h-188.384c-7.040 0-16 13.44-16 24v205.92zM32 848c0 8.832 7.2 16 16 16h432v-232c0-25.888 20.96-56 48-56h208v-656c0-8.832-7.2-16-16-16h-672c-8.96 0-16 7.040-16 16v928zM176 448h416c8.832 0 16 7.168 16 16s-7.168 16-16 16h-416c-8.832 0-16-7.168-16-16s7.168-16 16-16zM176 320h416c8.832 0 16 7.168 16 16s-7.168 16-16 16h-416c-8.832 0-16-7.168-16-16s7.168-16 16-16zM176 576h192c8.832 0 16 7.168 16 16s-7.168 16-16 16h-192c-8.832 0-16-7.168-16-16s7.168-16 16-16zM176 192h416c8.832 0 16 7.168 16 16s-7.168 16-16 16h-416c-8.832 0-16-7.168-16-16s7.168-16 16-16zM176 64h416c8.832 0 16 7.168 16 16s-7.168 16-16 16h-416c-8.832 0-16-7.168-16-16s7.168-16 16-16z" />
<glyph unicode="&#xe00c;" glyph-name="documents" horiz-adv-x="1088" d="M48.384 0h575.616c26.464 0 48 21.536 48 48v608c0 0.736-0.32 1.376-0.416 2.080s-0.224 1.312-0.416 1.984c-0.736 2.752-1.92 5.312-3.904 7.264l-223.968 223.968c-1.952 1.952-4.512 3.136-7.264 3.904-0.672 0.192-1.28 0.32-1.984 0.416-0.672 0.064-1.312 0.384-2.048 0.384h-383.808c-26.56 0-48.192-21.536-48.192-48v-800c0-26.464 21.696-48 48.384-48zM448 841.376l169.376-169.376h-153.376c-8.8 0-16 7.168-16 16v153.376zM32 848c0 8.832 7.264 16 16.192 16h367.808v-176c0-26.464 21.536-48 48-48h176v-592c0-8.832-7.2-16-16-16h-575.616c-9.056 0-16.384 7.168-16.384 16v800zM144 512h384c8.832 0 16 7.168 16 16s-7.168 16-16 16h-384c-8.832 0-16-7.168-16-16s7.168-16 16-16zM144 384h384c8.832 0 16 7.168 16 16s-7.168 16-16 16h-384c-8.832 0-16-7.168-16-16s7.168-16 16-16zM144 640h160c8.832 0 16 7.168 16 16s-7.168 16-16 16h-160c-8.832 0-16-7.168-16-16s7.168-16 16-16zM144 256h384c8.832 0 16 7.168 16 16s-7.168 16-16 16h-384c-8.832 0-16-7.168-16-16s7.168-16 16-16zM144 128h384c8.832 0 16 7.168 16 16s-7.168 16-16 16h-384c-8.832 0-16-7.168-16-16s7.168-16 16-16zM688 736h144v-176c0-26.464 21.536-48 48-48h176v-592c0-8.832-7.2-16-16-16h-575.616c-9.056 0-16.384 7.168-16.384 16v32c0 8.832-7.168 16-16 16s-16-7.168-16-16v-32c0-26.464 21.696-48 48.384-48h575.616c26.464 0 48 21.536 48 48v608c0 0.736-0.32 1.376-0.416 2.080s-0.224 1.312-0.416 1.984c-0.736 2.752-1.92 5.312-3.904 7.264l-223.968 223.968c-1.952 1.984-4.544 3.168-7.296 3.904-0.672 0.192-1.248 0.288-1.952 0.384-0.672 0.096-1.312 0.416-2.048 0.416h-160c-8.832 0-16-7.168-16-16s7.168-16 16-16zM880 544c-8.8 0-16 7.168-16 16v153.376l169.376-169.376h-153.376zM752 384h192c8.832 0 16 7.168 16 16s-7.168 16-16 16h-192c-8.832 0-16-7.168-16-16s7.168-16 16-16zM752 256h192c8.832 0 16 7.168 16 16s-7.168 16-16 16h-192c-8.832 0-16-7.168-16-16s7.168-16 16-16zM752 128h192c8.832 0 16 7.168 16 16s-7.168 16-16 16h-192c-8.832 0-16-7.168-16-16s7.168-16 16-16zM752 0h192c8.832 0 16 7.168 16 16s-7.168 16-16 16h-192c-8.832 0-16-7.168-16-16s7.168-16 16-16z" />
<glyph unicode="&#xe00d;" glyph-name="search4" horiz-adv-x="1056" d="M48-128h672c26.464 0 48 21.536 48 48v240c0 0.32-0.16 0.576-0.192 0.896 1.76 1.12 3.584 2.176 5.312 3.36l255.552-255.552c3.136-3.136 7.232-4.704 11.328-4.704s8.192 1.568 11.328 4.672c6.24 6.24 6.24 16.384 0 22.624l-253.216 253.216c40.448 37.984 65.888 91.776 65.888 151.488 0 73.504-38.432 138.112-96.192 175.104 0.032 0.32 0.192 0.576 0.192 0.896v80c0 0.544-0.256 0.992-0.288 1.504-0.064 0.736-0.256 1.376-0.416 2.080-0.544 2.272-1.472 4.32-2.88 6.112-0.224 0.288-0.192 0.64-0.416 0.928l-256 288c-0.096 0.096-0.224 0.096-0.32 0.192-1.92 2.080-4.384 3.456-7.136 4.288-0.608 0.192-1.152 0.256-1.792 0.352-0.928 0.16-1.792 0.544-2.752 0.544h-448c-26.464 0-48-21.536-48-48v-928c0-26.464 21.536-48 48-48zM832 336c0-97.056-78.976-176-176-176s-176 78.944-176 176 78.976 176 176 176 176-78.944 176-176zM512 837.92l204.384-229.92h-188.384c-7.040 0-16 13.44-16 24v205.92zM32 848c0 8.832 7.2 16 16 16h432v-232c0-25.888 20.96-56 48-56h208v-48.032c-24.64 10.304-51.648 16.032-80 16.032-58.816 0-111.872-24.64-149.728-64h-330.272c-8.832 0-16-7.168-16-16s7.168-16 16-16h305.024c-18.080-28.128-29.504-60.832-32.192-96h-272.832c-8.832 0-16-7.168-16-16s7.168-16 16-16h272.8c2.688-35.168 14.144-67.872 32.192-96h-304.992c-8.832 0-16-7.168-16-16s7.168-16 16-16h328c0.672 0 1.248 0.288 1.92 0.384 37.888-39.584 91.104-64.384 150.080-64.384 28.352 0 55.36 5.728 80 16.064v-224.064c0-8.832-7.2-16-16-16h-672c-8.96 0-16 7.040-16 16v928zM176 576h192c8.832 0 16 7.168 16 16s-7.168 16-16 16h-192c-8.832 0-16-7.168-16-16s7.168-16 16-16zM176 64h416c8.832 0 16 7.168 16 16s-7.168 16-16 16h-416c-8.832 0-16-7.168-16-16s7.168-16 16-16z" />
<glyph unicode="&#xe00e;" glyph-name="clipboard3" horiz-adv-x="896" d="M48-128h800c27.808 0 48 20.192 48 48v896c0 27.808-20.192 48-48 48h-128c-8.832 0-16-7.168-16-16s7.168-16 16-16h128c10.016 0 16-5.984 16-16v-896c0-10.016-5.984-16-16-16h-800c-10.016 0-16 5.984-16 16v896c0 10.016 5.984 16 16 16h128c8.832 0 16 7.168 16 16s-7.168 16-16 16h-128c-27.808 0-48-20.192-48-48v-896c0-27.808 20.192-48 48-48zM176 736c8.832 0 16 7.168 16 16s-7.168 16-16 16h-64c-8.832 0-16-7.168-16-16v-768c0-8.832 7.168-16 16-16h672c8.832 0 16 7.168 16 16v768c0 8.832-7.168 16-16 16h-64c-8.832 0-16-7.168-16-16s7.168-16 16-16h48v-736h-640v736h48zM288 672h320c38.88 0 64 25.12 64 64v144c0 8.832-7.168 16-16 16h-416c-8.832 0-16-7.168-16-16v-144c0-38.88 25.12-64 64-64zM256 864h384v-128c0-21.248-10.784-32-32-32h-320c-21.216 0-32 10.752-32 32v128zM272 384h352c8.832 0 16 7.168 16 16s-7.168 16-16 16h-352c-8.832 0-16-7.168-16-16s7.168-16 16-16zM272 512h352c8.832 0 16 7.168 16 16s-7.168 16-16 16h-352c-8.832 0-16-7.168-16-16s7.168-16 16-16zM272 256h352c8.832 0 16 7.168 16 16s-7.168 16-16 16h-352c-8.832 0-16-7.168-16-16s7.168-16 16-16zM272 128h352c8.832 0 16 7.168 16 16s-7.168 16-16 16h-352c-8.832 0-16-7.168-16-16s7.168-16 16-16z" />
<glyph unicode="&#xe00f;" glyph-name="newspaper2" horiz-adv-x="1344" d="M1184-32c38.272 0 64 25.728 64 64v848c0 8.832-7.168 16-16 16s-16-7.168-16-16v-848c0-27.84-20.064-32-32-32-3.296 0-32 0.896-32 32v848c0 8.832-7.168 16-16 16s-16-7.168-16-16v-848c0-42.016 32.192-64 64-64zM144 224h320c8.832 0 16 7.168 16 16v288c0 8.832-7.168 16-16 16h-320c-8.832 0-16-7.168-16-16v-288c0-8.832 7.168-16 16-16zM160 512h288v-256h-288v256zM144 640h768c8.832 0 16 7.168 16 16v128c0 8.832-7.168 16-16 16h-768c-8.832 0-16-7.168-16-16v-128c0-8.832 7.168-16 16-16zM160 768h736v-96h-736v96zM912 544h-320c-8.832 0-16-7.168-16-16s7.168-16 16-16h320c8.832 0 16 7.168 16 16s-7.168 16-16 16zM912 448h-320c-8.832 0-16-7.168-16-16s7.168-16 16-16h320c8.832 0 16 7.168 16 16s-7.168 16-16 16zM912 352h-320c-8.832 0-16-7.168-16-16s7.168-16 16-16h320c8.832 0 16 7.168 16 16s-7.168 16-16 16zM912 256h-320c-8.832 0-16-7.168-16-16s7.168-16 16-16h320c8.832 0 16 7.168 16 16s-7.168 16-16 16zM912 160h-320c-8.832 0-16-7.168-16-16s7.168-16 16-16h320c8.832 0 16 7.168 16 16s-7.168 16-16 16zM144 128h320c8.832 0 16 7.168 16 16s-7.168 16-16 16h-320c-8.832 0-16-7.168-16-16s7.168-16 16-16zM912 64h-320c-8.832 0-16-7.168-16-16s7.168-16 16-16h320c8.832 0 16 7.168 16 16s-7.168 16-16 16zM144 32h320c8.832 0 16 7.168 16 16s-7.168 16-16 16h-320c-8.832 0-16-7.168-16-16s7.168-16 16-16zM160-126.304h1024c0.256 0 0.512 0 0.64 0 0.224 0 0.416 0.128 0.64 0.128 86.688 0.704 157.056 71.328 157.056 158.176v848c0 7.904-6.4 14.304-14.304 14.304s-14.304-6.4-14.304-14.304v-848c0-71.52-58.176-129.696-129.696-129.696s-129.728 58.176-129.728 129.696v848c0 7.904-6.4 14.304-14.304 14.304h-1024c-7.904 0-14.304-6.4-14.304-14.304v-848c0-87.296 71.008-158.304 158.304-158.304zM30.304 865.696h995.36v-833.696c0-9.792 1.184-19.296 2.88-28.64 0.352-1.856 0.64-3.712 1.056-5.536 1.984-8.896 4.608-17.504 8.032-25.792 0.608-1.504 1.344-2.912 2.016-4.384 3.456-7.744 7.456-15.2 12.096-22.24 0.544-0.8 0.96-1.664 1.504-2.464 5.056-7.36 10.816-14.176 16.992-20.576 1.344-1.376 2.656-2.72 4.064-4.064 5.952-5.76 12.224-11.232 19.008-16h-933.312c-71.488 0-129.696 58.176-129.696 129.696v833.696z" />
<glyph unicode="&#xe010;" glyph-name="notebook" horiz-adv-x="864" d="M752-128c27.808 0 48 20.192 48 48v896c0 27.808-20.192 48-48 48h-640c-27.808 0-48-20.192-48-48v-37.344c0-8.832 7.168-16 16-16s16 7.168 16 16v37.344c0 10.016 5.984 16 16 16h145.984v-928h-145.984c-10.016 0-16 5.984-16 16v29.344c0 8.832-7.168 16-16 16s-16-7.168-16-16v-29.344c0-27.808 20.192-48 48-48h640zM288 832h464c10.016 0 16-5.984 16-16v-896c0-10.016-5.984-16-16-16h-464v928zM864-48v832c0 8.832-7.168 16-16 16s-16-7.168-16-16v-832c0-8.832 7.168-16 16-16s16 7.168 16 16zM16 544h128c8.832 0 16 7.168 16 16s-7.168 16-16 16h-128c-8.832 0-16-7.168-16-16s7.168-16 16-16zM16 672h128c8.832 0 16 7.168 16 16s-7.168 16-16 16h-128c-8.832 0-16-7.168-16-16s7.168-16 16-16zM16 416h128c8.832 0 16 7.168 16 16s-7.168 16-16 16h-128c-8.832 0-16-7.168-16-16s7.168-16 16-16zM16 160h128c8.832 0 16 7.168 16 16s-7.168 16-16 16h-128c-8.832 0-16-7.168-16-16s7.168-16 16-16zM16 288h128c8.832 0 16 7.168 16 16s-7.168 16-16 16h-128c-8.832 0-16-7.168-16-16s7.168-16 16-16zM16 32h128c8.832 0 16 7.168 16 16s-7.168 16-16 16h-128c-8.832 0-16-7.168-16-16s7.168-16 16-16z" />
<glyph unicode="&#xe011;" glyph-name="book-open" horiz-adv-x="1344" d="M1200 864h-512c-12.704 0-23.68-4.352-32-11.584-8.32 7.232-19.296 11.584-32 11.584h-512c-27.808 0-48-20.192-48-48v-896c0-27.808 20.192-48 48-48h512c12.704 0 23.68 4.352 32 11.584 8.32-7.232 19.296-11.584 32-11.584h512c27.808 0 48 20.192 48 48v896c0 27.808-20.192 48-48 48zM624-96h-512c-10.016 0-16 5.984-16 16v896c0 10.016 5.984 16 16 16h512c10.016 0 16-5.984 16-16v-896c0-10.016-5.984-16-16-16zM1216-80c0-10.016-5.984-16-16-16h-512c-10.016 0-16 5.984-16 16v896c0 10.016 5.984 16 16 16h512c10.016 0 16-5.984 16-16v-896zM1296 800c-8.832 0-16-7.168-16-16v-832c0-8.832 7.168-16 16-16s16 7.168 16 16v832c0 8.832-7.168 16-16 16zM16-64c8.832 0 16 7.168 16 16v832c0 8.832-7.168 16-16 16s-16-7.168-16-16v-832c0-8.832 7.168-16 16-16zM560 576h-384c-8.832 0-16-7.168-16-16s7.168-16 16-16h384c8.832 0 16 7.168 16 16s-7.168 16-16 16zM560 448h-384c-8.832 0-16-7.168-16-16s7.168-16 16-16h384c8.832 0 16 7.168 16 16s-7.168 16-16 16zM560 704h-384c-8.832 0-16-7.168-16-16s7.168-16 16-16h384c8.832 0 16 7.168 16 16s-7.168 16-16 16zM560 320h-384c-8.832 0-16-7.168-16-16s7.168-16 16-16h384c8.832 0 16 7.168 16 16s-7.168 16-16 16zM560 192h-384c-8.832 0-16-7.168-16-16s7.168-16 16-16h384c8.832 0 16 7.168 16 16s-7.168 16-16 16zM560 64h-384c-8.832 0-16-7.168-16-16s7.168-16 16-16h384c8.832 0 16 7.168 16 16s-7.168 16-16 16zM1136 576h-384c-8.832 0-16-7.168-16-16s7.168-16 16-16h384c8.832 0 16 7.168 16 16s-7.168 16-16 16zM1136 448h-384c-8.832 0-16-7.168-16-16s7.168-16 16-16h384c8.832 0 16 7.168 16 16s-7.168 16-16 16zM1136 704h-384c-8.832 0-16-7.168-16-16s7.168-16 16-16h384c8.832 0 16 7.168 16 16s-7.168 16-16 16zM1136 320h-384c-8.832 0-16-7.168-16-16s7.168-16 16-16h384c8.832 0 16 7.168 16 16s-7.168 16-16 16zM1136 192h-384c-8.832 0-16-7.168-16-16s7.168-16 16-16h384c8.832 0 16 7.168 16 16s-7.168 16-16 16zM1136 64h-384c-8.832 0-16-7.168-16-16s7.168-16 16-16h384c8.832 0 16 7.168 16 16s-7.168 16-16 16z" />
<glyph unicode="&#xe012;" glyph-name="browser" horiz-adv-x="1344" d="M1328 576c-8.832 0-16-7.168-16-16v-640c0-8.832-7.168-16-16-16h-1248c-8.832 0-16 7.168-16 16v640c0 8.832-7.168 16-16 16s-16-7.168-16-16v-640c0-26.464 21.536-48 48-48h1248c26.464 0 48 21.536 48 48v640c0 8.832-7.168 16-16 16zM1296 896h-1248c-26.464 0-48-21.536-48-48v-192c0-8.832 7.168-16 16-16h1312c8.832 0 16 7.168 16 16v192c0 26.464-21.536 48-48 48zM1312 672h-1280v176c0 8.832 7.168 16 16 16h1248c8.832 0 16-7.168 16-16v-176zM560 0c8.832 0 16 7.168 16 16v512c0 8.832-7.168 16-16 16h-416c-8.832 0-16-7.168-16-16v-512c0-8.832 7.168-16 16-16h416zM160 512h384v-480h-384v480zM720 416h480c8.832 0 16 7.168 16 16s-7.168 16-16 16h-480c-8.832 0-16-7.168-16-16s7.168-16 16-16zM720 256h480c8.832 0 16 7.168 16 16s-7.168 16-16 16h-480c-8.832 0-16-7.168-16-16s7.168-16 16-16zM720 96h480c8.832 0 16 7.168 16 16s-7.168 16-16 16h-480c-8.832 0-16-7.168-16-16s7.168-16 16-16zM96 768c0-17.673 14.327-32 32-32s32 14.327 32 32c0 17.673-14.327 32-32 32s-32-14.327-32-32zM224 768c0-17.673 14.327-32 32-32s32 14.327 32 32c0 17.673-14.327 32-32 32s-32-14.327-32-32zM352 768c0-17.673 14.327-32 32-32s32 14.327 32 32c0 17.673-14.327 32-32 32s-32-14.327-32-32z" />
<glyph unicode="&#xe013;" glyph-name="calendar3" horiz-adv-x="1088" d="M1088-80v608c0 8.832-7.168 16-16 16s-16-7.168-16-16v-608c0-8.832-7.168-16-16-16h-992c-8.832 0-16 7.168-16 16v608c0 8.832-7.168 16-16 16s-16-7.168-16-16v-608c0-26.464 21.536-48 48-48h992c26.464 0 48 21.536 48 48zM144 160c-8.832 0-16-7.168-16-16s7.168-16 16-16h48v-112c0-8.832 7.168-16 16-16s16 7.168 16 16v112h192v-112c0-8.832 7.168-16 16-16s16 7.168 16 16v112h192v-112c0-8.832 7.168-16 16-16s16 7.168 16 16v112h192v-112c0-8.832 7.168-16 16-16s16 7.168 16 16v112h48c8.832 0 16 7.168 16 16s-7.168 16-16 16h-48v160h48c8.832 0 16 7.168 16 16s-7.168 16-16 16h-48v144c0 8.832-7.168 16-16 16s-16-7.168-16-16v-144h-192v144c0 8.832-7.168 16-16 16s-16-7.168-16-16v-144h-192v144c0 8.832-7.168 16-16 16s-16-7.168-16-16v-144h-192v144c0 8.832-7.168 16-16 16s-16-7.168-16-16v-144h-48c-8.832 0-16-7.168-16-16s7.168-16 16-16h48v-160h-48zM864 320v-160h-192v160h192zM640 320v-160h-192v160h192zM224 320h192v-160h-192v160zM912 800h136c2.784 0 8 0 8-16v-144h-1024v144c0 8.832 7.168 16 16 16h128c8.832 0 16 7.168 16 16s-7.168 16-16 16h-128c-26.464 0-48-21.536-48-48v-160c0-8.832 7.168-16 16-16h1056c8.832 0 16 7.168 16 16v160c0 35.392-20.672 48-40 48h-136c-8.832 0-16-7.168-16-16s7.168-16 16-16zM720 800c8.832 0 16 7.168 16 16s-7.168 16-16 16h-352c-8.832 0-16-7.168-16-16s7.168-16 16-16h352zM288 752v128c0 8.832-7.168 16-16 16s-16-7.168-16-16v-128c0-8.832 7.168-16 16-16s16 7.168 16 16zM816 736c8.832 0 16 7.168 16 16v128c0 8.832-7.168 16-16 16s-16-7.168-16-16v-128c0-8.832 7.168-16 16-16z" />
<glyph unicode="&#xe014;" glyph-name="presentation" horiz-adv-x="992" d="M16 800c-8.832 0-16-7.168-16-16v-544c0-26.464 21.536-48 48-48h896c26.464 0 48 21.536 48 48v544c0 8.832-7.168 16-16 16s-16-7.168-16-16v-544c0-8.832-7.168-16-16-16h-896c-8.832 0-16 7.168-16 16v544c0 8.832-7.168 16-16 16zM1040 896h-1088c-8.832 0-16-7.168-16-16s7.168-16 16-16h1088c8.832 0 16 7.168 16 16s-7.168 16-16 16zM379.328 635.328c-5.856 5.856-15.2 6.272-21.568 0.992l-192-160c-6.784-5.664-7.712-15.744-2.048-22.56 5.664-6.784 15.712-7.712 22.56-2.048l180.768 150.656 181.664-181.664c3.104-3.136 7.2-4.704 11.296-4.704s8.192 1.568 11.328 4.672l228.672 228.704v-121.376c0-8.832 7.168-16 16-16s16 7.168 16 16v160c0 2.080-0.416 4.16-1.216 6.112-1.632 3.904-4.736 7.040-8.672 8.672-1.952 0.8-4.032 1.216-6.112 1.216h-160c-8.832 0-16-7.168-16-16s7.168-16 16-16h121.376l-217.376-217.376-180.672 180.704zM257.824-119.424c4.096-7.84 13.76-10.848 21.6-6.752l216.576 113.44 216.576-113.44c2.368-1.248 4.896-1.824 7.424-1.824 5.76 0 11.328 3.136 14.176 8.576 4.096 7.84 1.088 17.504-6.752 21.6l-220.576 115.52c3.136 2.912 5.152 7.008 5.152 11.648v82.656c0 8.832-7.168 16-16 16s-16-7.168-16-16v-82.656c0-4.608 2.016-8.704 5.152-11.616l-220.576-115.52c-7.84-4.128-10.848-13.792-6.752-21.632z" />
<glyph unicode="&#xe015;" glyph-name="picture" d="M48-128h928c26.464 0 48 21.536 48 48v928c0 26.464-21.536 48-48 48h-928c-26.464 0-48-21.536-48-48v-928c0-26.464 21.536-48 48-48zM32 848c0 8.832 7.2 16 16 16h928c8.8 0 16-7.168 16-16v-928c0-8.832-7.2-16-16-16h-928c-8.8 0-16 7.168-16 16v928zM656 496c35.296 0 64 28.704 64 64s-28.704 64-64 64-64-28.704-64-64 28.704-64 64-64zM656 592c17.664 0 32-14.368 32-32s-14.336-32-32-32-32 14.368-32 32 14.336 32 32 32zM144 96h736c8.832 0 16 7.168 16 16v640c0 8.832-7.168 16-16 16h-736c-8.832 0-16-7.168-16-16v-640c0-8.832 7.168-16 16-16zM160 128v180.416c0.704 0.512 1.504 0.8 2.144 1.44l163.712 163.712c8.32 8.32 22.784 8.288 31.104 0l240.672-240.672c3.136-3.136 7.232-4.672 11.328-4.672 3.968 0 7.936 1.472 11.040 4.416l123.712 117.504c4.16 4.16 9.696 6.464 15.552 6.464 5.888 0 11.36-2.304 15.072-5.984l89.664-97.664c0 0 0.032 0 0.032-0.032v-124.928h-704.032zM864 736v-435.776l-66.592 72.512c-10.144 10.208-23.712 15.84-38.112 15.84-0.032 0-0.032 0-0.032 0-14.432 0-28-5.632-37.92-15.552l-112.128-106.496-229.632 229.664c-20.448 20.416-55.968 20.384-76.352 0l-143.232-143.264v383.072h704z" />
<glyph unicode="&#xe016;" glyph-name="pictures" horiz-adv-x="1056" d="M48 0h832c26.464 0 48 21.536 48 48v800c0 26.464-21.536 48-48 48h-832c-26.464 0-48-21.536-48-48v-800c0-26.464 21.536-48 48-48zM32 848c0 8.832 7.2 16 16 16h832c8.8 0 16-7.168 16-16v-800c0-8.832-7.2-16-16-16h-832c-8.8 0-16 7.168-16 16v800zM576 544c35.296 0 64 28.704 64 64s-28.704 64-64 64-64-28.704-64-64 28.704-64 64-64zM576 640c17.664 0 32-14.368 32-32s-14.336-32-32-32-32 14.368-32 32 14.336 32 32 32zM112 160h704c8.832 0 16 7.168 16 16v608c0 8.832-7.168 16-16 16h-704c-8.832 0-16-7.168-16-16v-608c0-8.832 7.168-16 16-16zM128 192v148.416c0.704 0.512 1.504 0.8 2.144 1.44l163.712 163.712c8.32 8.32 22.784 8.288 31.104 0l240.672-240.672c3.136-3.136 7.232-4.672 11.328-4.672 3.968 0 7.936 1.472 11.040 4.416l123.712 117.504c4.16 4.16 9.696 6.464 15.552 6.464 5.888 0 11.36-2.304 14.848-5.696l57.888-65.888v-125.024h-672zM800 768v-402.592l-34.592 39.296c-10.144 10.208-23.712 15.84-38.112 15.84-0.032 0-0.032 0-0.032 0-14.432 0-28-5.632-37.92-15.552l-112.128-106.496-229.632 229.664c-20.448 20.416-55.968 20.384-76.352 0l-143.232-143.232v383.072h672zM144-34.656c-8.832 0-16-7.168-16-16v-29.344c0-26.464 21.536-48 48-48h832c26.464 0 48 21.536 48 48v832c0 26.464-21.536 48-48 48h-29.344c-8.832 0-16-7.168-16-16s7.168-16 16-16h29.344c8.8 0 16-7.168 16-16v-832c0-8.832-7.2-16-16-16h-832c-8.8 0-16 7.168-16 16v29.344c0 8.832-7.168 16-16 16z" />
<glyph unicode="&#xe017;" glyph-name="video" horiz-adv-x="1184" d="M240 896h-192c-27.808 0-48-20.192-48-48v-928c0-27.808 20.192-48 48-48h1088c27.808 0 48 20.192 48 48v928c0 27.808-20.192 48-48 48h-896zM32-80v928c0 10.016 5.984 16 16 16h176v-960h-176c-10.016 0-16 5.984-16 16zM256-96v960h672v-960h-672zM1152 848v-928c0-10.016-5.984-16-16-16h-176v960h176c10.016 0 16-5.984 16-16zM472.864 573.312c-4.896 3.264-11.232 3.584-16.448 0.8-5.152-2.784-8.416-8.192-8.416-14.112v-384c0-5.92 3.264-11.328 8.448-14.112 2.368-1.248 4.96-1.888 7.552-1.888 3.104 0 6.176 0.896 8.864 2.688l288 192c4.448 2.976 7.136 7.968 7.136 13.312s-2.688 10.336-7.136 13.312l-288 192zM480 205.888v324.224l243.168-162.112-243.168-162.112zM160 640h-64c-8.832 0-16-7.168-16-16s7.168-16 16-16h64c8.832 0 16 7.168 16 16s-7.168 16-16 16zM96 736h64c8.832 0 16 7.168 16 16s-7.168 16-16 16h-64c-8.832 0-16-7.168-16-16s7.168-16 16-16zM160 512h-64c-8.832 0-16-7.168-16-16s7.168-16 16-16h64c8.832 0 16 7.168 16 16s-7.168 16-16 16zM160 384h-64c-8.832 0-16-7.168-16-16s7.168-16 16-16h64c8.832 0 16 7.168 16 16s-7.168 16-16 16zM160 256h-64c-8.832 0-16-7.168-16-16s7.168-16 16-16h64c8.832 0 16 7.168 16 16s-7.168 16-16 16zM160 128h-64c-8.832 0-16-7.168-16-16s7.168-16 16-16h64c8.832 0 16 7.168 16 16s-7.168 16-16 16zM160 0h-64c-8.832 0-16-7.168-16-16s7.168-16 16-16h64c8.832 0 16 7.168 16 16s-7.168 16-16 16zM1024 608h64c8.832 0 16 7.168 16 16s-7.168 16-16 16h-64c-8.832 0-16-7.168-16-16s7.168-16 16-16zM1024 736h64c8.832 0 16 7.168 16 16s-7.168 16-16 16h-64c-8.832 0-16-7.168-16-16s7.168-16 16-16zM1024 480h64c8.832 0 16 7.168 16 16s-7.168 16-16 16h-64c-8.832 0-16-7.168-16-16s7.168-16 16-16zM1024 352h64c8.832 0 16 7.168 16 16s-7.168 16-16 16h-64c-8.832 0-16-7.168-16-16s7.168-16 16-16zM1024 224h64c8.832 0 16 7.168 16 16s-7.168 16-16 16h-64c-8.832 0-16-7.168-16-16s7.168-16 16-16zM1024 96h64c8.832 0 16 7.168 16 16s-7.168 16-16 16h-64c-8.832 0-16-7.168-16-16s7.168-16 16-16zM1088 0h-64c-8.832 0-16-7.168-16-16s7.168-16 16-16h64c8.832 0 16 7.168 16 16s-7.168 16-16 16z" />
<glyph unicode="&#xe018;" glyph-name="camera4" horiz-adv-x="1344" d="M1264 704h-240c-61.664 0-63.936 57.504-64 64v32c0 40.256-44.48 96-128 96h-319.008c-93.92 0-128-57.408-128-96v-31.808c-0.032-2.624-1.536-64.192-64.992-64.192h-240c-44.128 0-80-35.904-80-80v-576c0-44.096 35.872-80 80-80h192c8.832 0 16 7.168 16 16s-7.168 16-16 16h-192c-26.464 0-48 21.536-48 48v400h256c-20.608-49.28-32-103.328-32-160 0-229.376 186.624-416 416-416s416 186.624 416 416c0 56.672-11.488 110.72-32.096 160h256.096v-400c0-26.464-21.536-48-48-48h-224c-8.832 0-16-7.168-16-16s7.168-16 16-16h224c44.128 0 80 35.904 80 80v576c0 44.096-35.872 80-80 80zM672-96c-211.744 0-384 172.256-384 384s172.256 384 384 384 384-172.256 384-384-172.256-384-384-384zM1048 480c-2.368 0-4.576-0.576-6.592-1.504-69.248 133.728-208.704 225.504-369.408 225.504s-300.16-91.776-369.408-225.504c-2.016 0.928-4.224 1.504-6.592 1.504h-264v144c0 26.464 21.536 48 48 48h240c75.776 0 96.608 62.656 96.992 96v32c0 25.728 25.568 64 96 64h319.008c67.008 0 96-42.368 96-64v-32c0-33.216 20.064-96 96-96h240c26.464 0 48-21.536 48-48v-144h-264zM304 736c8.832 0 16 7.168 16 16v32c0 26.464-21.536 48-48 48h-128c-26.464 0-48-21.536-48-48v-32c0-8.832 7.168-16 16-16s16 7.168 16 16v32c0 8.832 7.2 16 16 16h128c8.8 0 16-7.168 16-16v-32c0-8.832 7.168-16 16-16zM672 576c-158.816 0-288-129.216-288-288s129.184-288 288-288 288 129.216 288 288-129.184 288-288 288zM672 32c-141.152 0-256 114.848-256 256s114.848 256 256 256 256-114.848 256-256-114.848-256-256-256z" />
<glyph unicode="&#xe019;" glyph-name="printer2" horiz-adv-x="1344" d="M1296 576h-80v112c0 26.464-21.536 48-48 48h-64c-8.832 0-16-7.168-16-16s7.168-16 16-16h64c8.8 0 16-7.168 16-16v-112h-128v304c0 8.832-7.168 16-16 16h-736c-8.832 0-16-7.168-16-16v-304h-128v112c0 8.832 7.2 16 16 16h64c8.832 0 16 7.168 16 16s-7.168 16-16 16h-64c-26.464 0-48-21.536-48-48v-112h-80c-26.464 0-48-21.536-48-48v-448c0-26.464 21.536-48 48-48h192c8.832 0 16 7.168 16 16s-7.168 16-16 16h-192c-8.8 0-16 7.168-16 16v112h1280v-112c0-8.832-7.2-16-16-16h-192c-8.832 0-16-7.168-16-16s7.168-16 16-16h192c26.464 0 48 21.536 48 48v448c0 26.464-21.536 48-48 48zM320 864h704v-288h-704v288zM32 224v304c0 8.832 7.2 16 16 16h1248c8.8 0 16-7.168 16-16v-304h-1280zM1040 160c-8.832 0-16-7.168-16-16v-240h-704v240c0 8.832-7.168 16-16 16s-16-7.168-16-16v-256c0-8.832 7.168-16 16-16h736c8.832 0 16 7.168 16 16v256c0 8.832-7.168 16-16 16zM1184 320c0-17.673 14.327-32 32-32s32 14.327 32 32c0 17.673-14.327 32-32 32s-32-14.327-32-32zM1056 320c0-17.673 14.327-32 32-32s32 14.327 32 32c0 17.673-14.327 32-32 32s-32-14.327-32-32z" />
<glyph unicode="&#xe01a;" glyph-name="toolbox" horiz-adv-x="1344" d="M1328 352c-8.832 0-16-7.168-16-16v-416c0-8.832-7.168-16-16-16h-1248c-8.832 0-16 7.168-16 16v416c0 8.832-7.168 16-16 16s-16-7.168-16-16v-416c0-26.464 21.536-48 48-48h1248c26.464 0 48 21.536 48 48v416c0 8.832-7.168 16-16 16zM1296 672h-1248c-26.464 0-48-21.536-48-48v-192c0-8.832 7.168-16 16-16h432v-112c0-26.464 21.536-48 48-48h352c26.464 0 48 21.536 48 48v112h432c8.832 0 16 7.168 16 16v192c0 26.464-21.536 48-48 48zM864 304c0-8.832-7.168-16-16-16h-352c-8.832 0-16 7.168-16 16v112h384v-112zM1312 448h-1280v176c0 8.832 7.168 16 16 16h1248c8.832 0 16-7.168 16-16v-176zM496 896c-26.464 0-48-21.536-48-48v-128c0-8.832 7.168-16 16-16s16 7.168 16 16v128c0 8.832 7.168 16 16 16h352c8.832 0 16-7.168 16-16v-128c0-8.832 7.168-16 16-16s16 7.168 16 16v128c0 26.464-21.536 48-48 48h-352z" />
<glyph unicode="&#xe01b;" glyph-name="briefcase3" horiz-adv-x="1216" d="M1200 320c-8.832 0-16-7.168-16-16v-384c0-8.832-7.168-16-16-16h-1120c-8.832 0-16 7.168-16 16v384c0 8.832-7.168 16-16 16s-16-7.168-16-16v-384c0-26.464 21.536-48 48-48h1120c26.464 0 48 21.536 48 48v384c0 8.832-7.168 16-16 16zM816 736c8.832 0 16 7.168 16 16v96c0 26.464-21.536 48-48 48h-352c-26.464 0-48-21.536-48-48v-96c0-8.832 7.168-16 16-16s16 7.168 16 16v96c0 8.832 7.168 16 16 16h352c8.832 0 16-7.168 16-16v-96c0-8.832 7.168-16 16-16zM1168 672h-1120c-26.464 0-48-21.536-48-48v-158.656c0-88.896 302.592-208 612-208 305.376 0 604 119.104 604 208v158.656c0 26.464-21.536 48-48 48zM1184 465.344c0-56.448-270.624-176-572-176-305.6 0-580 119.52-580 176v158.656c0 8.832 7.168 16 16 16h1120c8.832 0 16-7.168 16-16v-158.656zM612 160c30.176 0 61.536 1.248 93.248 3.712 8.8 0.672 15.392 8.384 14.688 17.216-0.672 8.8-8.064 15.552-17.216 14.688-64.448-5.024-125.088-4.8-189.408 0.64-8.448 0.864-16.544-5.792-17.28-14.592s5.792-16.544 14.592-17.28c34.432-2.912 68.544-4.384 101.376-4.384z" />
<glyph unicode="&#xe01c;" glyph-name="wallet" horiz-adv-x="1216" d="M1040.288 656c8.832 0 16 7.168 16 16v53.28c0 28.896-23.52 52.416-52.416 52.416h-85.984l-19.616 57.888c-2.752 8.16-11.52 12.704-19.808 10.176l-465.696-141.568c-8.448-2.592-13.216-11.52-10.656-19.968 2.112-6.912 8.448-11.328 15.328-11.328 1.536 0 3.104 0.224 4.672 0.672l450.848 137.088 42.976-126.88c2.848-8.384 12-12.928 20.288-10.016 8.384 2.816 12.864 11.936 10.016 20.288l-17.504 51.68h75.168c11.264 0 20.416-9.152 20.416-20.416v-53.312c-0.032-8.832 7.136-16 15.968-16zM1168 416c-8.832 0-16-7.168-16-16s7.168-16 16-16c11.232 0 16-4.768 16-16v-192c0-11.232-4.768-16-16-16h-256c-11.232 0-16 4.768-16 16v160c0 11.232 4.768 16 16 16h192c8.832 0 16 7.168 16 16v192c0 29.152-18.848 48-48 48h-976c-39.456 0-64 24.544-64 64s24.544 64 64 64h162.432l-96.832-31.936c-8.384-2.752-12.96-11.808-10.208-20.192 2.208-6.72 8.48-10.976 15.2-10.976 1.664 0 3.328 0.256 5.024 0.8l579.808 191.136c8.384 2.784 12.96 11.808 10.176 20.224-2.752 8.384-11.808 12.96-20.224 10.176l-387.2-127.68c-0.736 0.128-1.408 0.448-2.176 0.448h-256c-57.408 0-96-38.592-96-96v-704c0-57.408 38.592-96 96-96h976c29.152 0 48 18.848 48 48v160c0 8.832-7.168 16-16 16s-16-7.168-16-16v-160c0-11.232-4.768-16-16-16h-976c-39.456 0-64 24.544-64 64v630.016c16.416-13.856 38.144-22.016 64-22.016h976c11.232 0 16-4.768 16-16v-176h-176c-29.152 0-48-18.848-48-48v-160c0-29.152 18.848-48 48-48h256c29.152 0 48 18.848 48 48v192c0 29.152-18.848 48-48 48zM992 256c0-17.673 14.327-32 32-32s32 14.327 32 32c0 17.673-14.327 32-32 32s-32-14.327-32-32z" />
<glyph unicode="&#xe01d;" glyph-name="gift3" horiz-adv-x="1344" d="M48 352c-8.832 0-16-7.168-16-16v-384c0-26.464 21.536-48 48-48h320c8.832 0 16 7.168 16 16s-7.168 16-16 16h-320c-8.832 0-16 7.168-16 16v384c0 8.832-7.168 16-16 16zM1296 352c-8.832 0-16-7.168-16-16v-384c0-8.832-7.168-16-16-16h-672c-8.832 0-16-7.168-16-16s7.168-16 16-16h672c26.464 0 48 21.536 48 48v384c0 8.832-7.168 16-16 16zM576 848c0-8.832 7.168-16 16-16h672c8.832 0 16-7.168 16-16v-286.656c0-8.832 7.168-16 16-16s16 7.168 16 16v286.656c0 26.464-21.536 48-48 48h-672c-8.832 0-16-7.168-16-16zM80 864c-26.464 0-48-21.536-48-48v-286.656c0-8.832 7.168-16 16-16s16 7.168 16 16v286.656c0 8.832 7.168 16 16 16h320c8.832 0 16 7.168 16 16s-7.168 16-16 16h-320zM1328 449.344h-652.8c12.704 5.632 23.68 12.192 31.488 20 48.352 48.352 48.352 127.008 0 175.36-46.848 46.848-128.512 46.848-175.36 0-7.52-7.52-13.824-18.016-19.328-30.080v265.376c0 8.832-7.168 16-16 16s-16-7.168-16-16v-423.2c-54.496 22.464-150.432 68.608-170.112 108.384-12.8 25.856-14.752 55.104-5.536 82.432 9.248 27.328 28.544 49.376 54.368 62.176 7.936 3.936 11.168 13.504 7.264 21.44-3.968 7.936-13.504 11.2-21.44 7.264-33.504-16.576-58.528-45.216-70.496-80.64s-9.408-73.376 7.168-106.848c19.36-39.104 84.16-76.512 136.8-101.664h-402.016c-8.832 0-16-7.168-16-16s7.168-16 16-16h299.072c-12.384-5.568-23.104-12-30.752-19.648-48.352-48.352-48.352-127.008 0-175.36 23.424-23.424 54.56-36.32 87.68-36.32s64.256 12.896 87.68 36.32c7.936 7.936 14.592 19.168 20.32 32.16v-366.496c0-8.832 7.168-16 16-16s16 7.168 16 16v521.76c54.656-22.592 149.536-68.416 169.12-107.968 12.8-25.856 14.752-55.104 5.536-82.432-9.248-27.328-28.544-49.376-54.368-62.176-7.936-3.936-11.168-13.504-7.264-21.44 2.784-5.632 8.48-8.896 14.368-8.896 2.368 0 4.8 0.544 7.072 1.664 33.504 16.576 58.528 45.216 70.496 80.64s9.408 73.344-7.168 106.848c-19.264 38.912-83.552 76.16-136.064 101.344h754.272c8.832 0 16 7.168 16 16s-7.168 16-16 16zM553.952 622.048c17.376 17.376 40.48 26.944 65.056 26.944s47.68-9.568 65.056-26.944c35.872-35.872 35.872-94.24 0-130.112-27.328-27.328-121.28-38.464-171.744-41.6 3.584 59.648 16.704 146.784 41.632 171.712zM437.056 244.96c-34.752-34.752-95.36-34.752-130.112 0-35.872 35.872-35.872 94.24 0 130.112 27.328 27.328 121.28 38.464 171.744 41.6-3.584-59.648-16.704-146.784-41.632-171.712z" />
<glyph unicode="&#xe01e;" glyph-name="bargraph" horiz-adv-x="1152" d="M832 560v-640c0-5.632 1.152-10.976 2.944-16h-101.888c1.792 5.024 2.944 10.368 2.944 16v928c0 26.464-21.536 48-48 48h-224c-26.464 0-48-21.536-48-48v-928c0-5.632 1.152-10.976 2.944-16h-101.888c1.792 5.024 2.944 10.368 2.944 16v352c0 26.464-21.536 48-48 48h-224c-26.464 0-48-21.536-48-48v-352c0-26.464 21.536-48 48-48h1056c26.464 0 48 21.536 48 48v640c0 26.464-21.536 48-48 48h-224c-26.464 0-48-21.536-48-48zM160-96h-112c-8.8 0-16 7.168-16 16v352c0 8.832 7.2 16 16 16h224c8.8 0 16-7.168 16-16v-352c0-8.832-7.2-16-16-16h-112zM464-96c-8.8 0-16 7.168-16 16v928c0 8.832 7.2 16 16 16h224c8.8 0 16-7.168 16-16v-928c0-8.832-7.2-16-16-16h-224zM1120 560v-640c0-8.832-7.2-16-16-16h-224c-8.8 0-16 7.168-16 16v640c0 8.832 7.2 16 16 16h224c8.8 0 16-7.168 16-16z" />
<glyph unicode="&#xe01f;" glyph-name="grid" horiz-adv-x="992" d="M912 544c8.832 0 16 7.168 16 16s-7.168 16-16 16h-240v240c0 8.832-7.168 16-16 16s-16-7.168-16-16v-240h-288v240c0 8.832-7.168 16-16 16s-16-7.168-16-16v-240h-240c-8.832 0-16-7.168-16-16s7.168-16 16-16h240v-288h-240c-8.832 0-16-7.168-16-16s7.168-16 16-16h240v-272c0-8.832 7.168-16 16-16s16 7.168 16 16v272h288v-272c0-8.832 7.168-16 16-16s16 7.168 16 16v272h240c8.832 0 16 7.168 16 16s-7.168 16-16 16h-240v288h240zM640 256h-288v288h288v-288zM992-80v928c0 26.464-21.536 48-48 48h-896c-26.464 0-48-21.536-48-48v-928c0-26.464 21.536-48 48-48h896c26.464 0 48 21.536 48 48zM32-80v928c0 8.832 7.2 16 16 16h896c8.8 0 16-7.168 16-16v-928c0-8.832-7.2-16-16-16h-896c-8.8 0-16 7.168-16 16z" />
<glyph unicode="&#xe020;" glyph-name="expand2" d="M1024-80v928c0 26.464-21.536 48-48 48h-928c-26.464 0-48-21.536-48-48v-288c0-8.832 7.168-16 16-16s16 7.168 16 16v288c0 8.832 7.2 16 16 16h928c8.8 0 16-7.168 16-16v-928c0-8.832-7.2-16-16-16h-288c-8.832 0-16-7.168-16-16s7.168-16 16-16h288c26.464 0 48 21.536 48 48zM48 480c-26.464 0-48-21.536-48-48v-512c0-26.464 21.536-48 48-48h512c26.464 0 48 21.536 48 48v537.376l224 224v-217.376c0-8.832 7.168-16 16-16s16 7.168 16 16v256c0 8.832-7.168 16-16 16h-256c-8.832 0-16-7.168-16-16s7.168-16 16-16h217.344l-224-224h-537.344zM576-80c0-8.832-7.2-16-16-16h-512c-8.8 0-16 7.168-16 16v512c0 8.832 7.2 16 16 16h528v-528z" />
<glyph unicode="&#xe021;" glyph-name="focus" horiz-adv-x="1344" d="M272 896h-224c-26.464 0-48-21.536-48-48v-192c0-8.832 7.168-16 16-16s16 7.168 16 16v192c0 8.832 7.2 16 16 16h224c8.832 0 16 7.168 16 16s-7.168 16-16 16zM1296 896h-224c-8.832 0-16-7.168-16-16s7.168-16 16-16h224c8.8 0 16-7.168 16-16v-192c0-8.832 7.168-16 16-16s16 7.168 16 16v192c0 26.464-21.536 48-48 48zM1328 128c-8.832 0-16-7.168-16-16v-192c0-8.832-7.2-16-16-16h-224c-8.832 0-16-7.168-16-16s7.168-16 16-16h224c26.464 0 48 21.536 48 48v192c0 8.832-7.168 16-16 16zM16 128c-8.832 0-16-7.168-16-16v-192c0-26.464 21.536-48 48-48h224c8.832 0 16 7.168 16 16s-7.168 16-16 16h-224c-8.8 0-16 7.168-16 16v192c0 8.832-7.168 16-16 16zM752 288c8.832 0 16 7.168 16 16v160c0 8.832-7.168 16-16 16h-160c-8.832 0-16-7.168-16-16v-160c0-8.832 7.168-16 16-16h160zM608 448h128v-128h-128v128z" />
<glyph unicode="&#xe022;" glyph-name="edit3" d="M48-128h928c26.464 0 48 21.536 48 48v928c0 26.464-21.536 48-48 48h-928c-26.464 0-48-21.536-48-48v-928c0-26.464 21.536-48 48-48zM32 848c0 8.832 7.2 16 16 16h928c8.8 0 16-7.168 16-16v-928c0-8.832-7.2-16-16-16h-928c-8.8 0-16 7.168-16 16v928zM128-15.328c1.536 0 3.072 0.224 4.576 0.672l320 95.328c2.592 0.768 4.928 2.176 6.816 4.064l322.88 326.56c0.736 0.768 1.12 1.696 1.664 2.56l117.056 117.056c19.424 19.424 19.424 51.040 0 70.496l-167.552 167.488c-19.424 19.424-51.040 19.456-70.464 0l-119.648-119.648c-0.768-0.768-1.152-1.728-1.728-2.592l-323.776-323.808c-1.792-1.792-3.136-3.968-3.904-6.368l-101.12-310.88c-1.856-5.664-0.384-11.872 3.744-16.128 3.040-3.104 7.2-4.8 11.456-4.8zM555.488 615.328l33.28-33.28-272.736-274.016-55.264 12.544 294.72 294.752zM336 282.72l275.424 276.672 77.888-77.888-279.84-273.504h-73.472v74.72zM748.32 422.496l-295.872-299.264-18.432 63.968 277.888 271.648 36.416-36.352zM239.776 292.512l64.224-14.592v-85.92c0-8.832 7.168-16 16-16h83.968l20.256-70.4-271.584-80.896 87.136 267.808zM685.6 746.272c6.976 6.944 18.304 6.912 25.216 0l167.52-167.52c6.976-6.944 6.976-18.272 0-25.248l-107.904-107.904-192.736 192.736 107.904 107.936z" />
<glyph unicode="&#xe023;" glyph-name="adjustments" horiz-adv-x="1056" d="M992 896h-928c-26.304 0-64-37.696-64-64v-896c0-26.304 37.696-64 64-64h928c26.304 0 64 37.696 64 64v896c0 26.304-37.696 64-64 64zM1024-64c-0.192-9.088-22.912-31.808-32-32h-928c-9.088 0.192-31.808 22.912-32 32v896c0.192 9.088 22.912 31.808 32 32h928c9.088-0.192 31.808-22.912 32-32v-896zM528 720c-35.296 0-64-28.704-64-64s28.704-64 64-64 64 28.704 64 64-28.704 64-64 64zM528 624c-17.632 0-32 14.368-32 32s14.368 32 32 32 32-14.368 32-32-14.368-32-32-32zM784 208c-35.296 0-64-28.704-64-64s28.704-64 64-64 64 28.704 64 64-28.704 64-64 64zM784 112c-17.632 0-32 14.368-32 32s14.368 32 32 32 32-14.368 32-32-14.368-32-32-32zM272 368c-35.296 0-64-28.704-64-64s28.704-64 64-64 64 28.704 64 64-28.704 64-64 64zM272 272c-17.632 0-32 14.368-32 32s14.368 32 32 32 32-14.368 32-32-14.368-32-32-32zM272 416c8.832 0 16 7.168 16 16v288c0 8.832-7.168 16-16 16s-16-7.168-16-16v-288c0-8.832 7.168-16 16-16zM272 192c-8.832 0-16-7.168-16-16v-96c0-8.832 7.168-16 16-16s16 7.168 16 16v96c0 8.832-7.168 16-16 16zM528 544c-8.832 0-16-7.168-16-16v-448c0-8.832 7.168-16 16-16s16 7.168 16 16v448c0 8.832-7.168 16-16 16zM784 256c8.832 0 16 7.168 16 16v448c0 8.832-7.168 16-16 16s-16-7.168-16-16v-448c0-8.832 7.168-16 16-16z" />
<glyph unicode="&#xe024;" glyph-name="ribbon" horiz-adv-x="896" d="M48 608c-8.832 0-16-7.168-16-16v-670.272c0-21.28 10.112-33.248 18.624-39.52 10.176-7.552 22.144-10.208 32.832-10.208 6.432 0 12.384 0.96 17.216 2.464 93.728 28.64 299.040 239.424 351.136 294.080 50.784-54.976 249.76-265.44 343.488-294.080 12.928-3.968 33.76-4.32 50.048 7.776 8.544 6.272 18.656 18.208 18.656 39.488v670.272c0 8.832-7.168 16-16 16s-16-7.168-16-16v-670.272c0-8.64-3.232-12-5.664-13.792-5.696-4.224-15.488-4.8-21.664-2.912-97.28 29.728-338.4 295.040-340.8 297.696-3.008 3.328-7.264 5.248-11.744 5.28-4.064 0.032-8.736-1.792-11.808-5.088-2.496-2.656-251.584-268.096-348.992-297.888-6.144-1.888-15.968-1.312-21.664 2.912-2.432 1.792-5.664 5.184-5.664 13.792v670.272c0 8.832-7.168 16-16 16zM896 688v160c0 26.464-21.536 48-48 48h-800c-26.464 0-48-21.536-48-48v-160c0-8.832 7.168-16 16-16h864c8.832 0 16 7.168 16 16zM864 704h-832v144c0 8.832 7.168 16 16 16h800c8.832 0 16-7.168 16-16v-144z" />
<glyph unicode="&#xe025;" glyph-name="hourglass2" horiz-adv-x="672" d="M672.672 880c0 8.832-7.168 16-16 16h-641.344c-8.832 0-16-7.168-16-16s7.136-16 16-16h641.376c8.832 0 15.968 7.168 15.968 16zM640 700.416v115.584c0 8.832-7.168 16-16 16h-573.376c-8.832 0-16-7.168-16-16v-115.584c0-159.232 121.856-267.2 192.448-316.352-80.928-55.744-195.072-161.824-195.072-316.48v-115.584c0-8.832 7.168-16 16-16h576c8.832 0 16 7.168 16 16v114.656c0 158.784-123.616 267.68-195.040 317.312 80.928 55.744 195.040 161.792 195.040 316.448zM336 121.92l153.92-153.92h-307.84l153.92 153.92zM407.424 397.504c-4.64-2.912-7.424-8.032-7.424-13.504s2.784-10.592 7.424-13.504c60.32-38.24 200.576-144.416 200.576-303.84v-98.656h-73.216c-0.288 0.352-0.416 0.8-0.736 1.12l-182.048 182.048v24.832c0 8.832-7.168 16-16 16s-16-7.168-16-16v-24.832l-182.048-182.048c-0.32-0.32-0.448-0.768-0.736-1.12h-73.216v99.584c0 152.864 125.664 255.392 200.576 302.88 4.64 2.944 7.424 8.064 7.424 13.536s-2.784 10.592-7.424 13.504c-59.52 37.76-200.576 142.816-200.576 302.912v99.584h544v-99.584c0-152.896-125.664-255.392-200.576-302.912zM497.312 608.896h-314.048c-5.728 0-11.040-3.072-13.888-8.032-2.848-4.992-2.816-11.104 0.064-16.064 37.984-64.672 93.44-104.256 152.16-146.208l5.088-3.616c2.784-1.984 6.016-2.976 9.312-2.976s6.528 0.992 9.312 2.976c8.384 5.984 16.832 11.872 25.28 17.76 52.448 36.608 106.688 74.432 140.512 132.064 2.912 4.928 2.944 11.072 0.096 16.032-2.88 4.992-8.16 8.064-13.888 8.064zM352.256 479.008c-5.408-3.776-10.816-7.552-16.224-11.36-48.16 34.4-90.72 65.344-123.072 109.28h254.176c-30.112-38.784-71.488-67.648-114.88-97.92zM15.328-128h641.376c8.832 0 16 7.168 16 16s-7.168 16-16 16h-641.376c-8.832 0-16-7.168-16-16s7.136-16 16-16zM336 288c-8.832 0-16-7.168-16-16v-32c0-8.832 7.168-16 16-16s16 7.168 16 16v32c0 8.832-7.168 16-16 16zM336 384c-8.832 0-16-7.168-16-16v-32c0-8.832 7.168-16 16-16s16 7.168 16 16v32c0 8.832-7.168 16-16 16z" />
<glyph unicode="&#xe026;" glyph-name="lock4" horiz-adv-x="896" d="M448 896c-176.448 0-320-143.552-320-320v-96h-48c-44.096 0-80-35.904-80-80v-448c0-44.096 35.904-80 80-80h736c44.096 0 80 35.904 80 80v448c0 44.096-35.904 80-80 80h-48v96c0 176.448-143.552 320-320 320zM160 576c0 158.784 129.216 288 288 288s288-129.216 288-288v-96h-96v96c0 105.888-86.112 192-192 192s-192-86.112-192-192v-96h-96v96zM608 480h-320v96c0 88.224 71.776 160 160 160s160-71.776 160-160v-96zM393.376 224l-160-160h-146.752l160 160h146.752zM585.376 224l-160-160h-146.752l160 160h146.752zM777.376 224l-160-160h-146.752l160 160h146.752zM864 224v-160h-201.376l160 160h41.376zM41.376 64h-9.376v160h169.376l-160-160zM816-96h-736c-26.464 0-48 21.536-48 48v80h832v-80c0-26.464-21.536-48-48-48zM864 400v-144h-832v144c0 26.464 21.536 48 48 48h736c26.464 0 48-21.536 48-48z" />
<glyph unicode="&#xe027;" glyph-name="megaphone" horiz-adv-x="1280" d="M1263.936 896c-8.864 0-15.936-7.168-15.936-16v-992c0-8.832 7.072-16 15.936-16s16 7.168 16 16v992c0 8.832-7.168 16-16 16zM1206.944 857.472c-5.44 2.656-12.032 1.984-16.832-1.76l-18.080-14.24c-95.296-75.36-254.688-201.472-580.032-201.472h-443.808c-46.432 0-84.192-38.4-84.192-85.568v-342.848c0-46.080 37.76-83.584 84.192-83.584h108.608c2.816-36 16.064-121.408 78.528-184.352 47.168-47.552 112-71.648 192.672-71.648 8.832 0 16 7.168 16 16s-7.168 16-16 16c-71.744 0-128.832 20.864-169.792 62.016-53.344 53.632-66.144 128.768-69.216 161.984h95.84c2.72-21.824 11.52-60.192 40.768-89.664 25.248-25.44 59.712-38.336 102.4-38.336 8.832 0 16 7.168 16 16s-7.168 16-16 16c-33.76 0-60.512 9.664-79.488 28.672-21.024 21.088-28.608 49.472-31.392 67.328h172.672c326.912 0 487.584-126.816 583.584-202.592l16.704-13.152c2.848-2.24 6.336-3.36 9.824-3.36 2.4 0 4.8 0.544 7.008 1.632 5.504 2.688 8.992 8.256 8.992 14.368v918.208c0.032 6.112-3.456 11.68-8.96 14.368zM96 211.584v342.848c0 29.536 23.392 53.568 52.192 53.568h107.808v-448h-107.808c-29.28 0-52.192 22.656-52.192 51.584zM1184-42.144c-100.288 78.912-266.496 202.144-594.176 202.144h-185.504c-1.504 0.48-3.040 0.96-4.736 0.992-0.032 0-0.032 0-0.064 0-1.728 0-3.36-0.48-4.928-0.992h-106.592v448h304c327.584 0 492.608 123.648 592 202.112v-852.256zM16 196.576c8.832 0 16 7.168 16 16v342.848c0 8.832-7.168 16-16 16s-16-7.136-16-16v-342.848c0-8.832 7.168-16 16-16z" />
<glyph unicode="&#xe028;" glyph-name="shield3" horiz-adv-x="864" d="M432 896c-285.984 0-422.656-161.504-428.352-168.384-2.336-2.88-3.648-6.464-3.648-10.208v-321.728c0-272.128 250.432-433.696 358.080-490.528 7.808-4.128 17.472-1.12 21.632 6.688 4.128 7.808 1.12 17.504-6.688 21.632-127.36 67.232-341.024 216.672-341.024 462.24v315.616c22.464 24.16 148.224 147.104 384 152.48v-975.808c0-8.832 7.168-16 16-16 4.768 0 9.056 2.080 12 5.408 52.384 22.528 420 192.48 420 522.592v320c0 3.744-1.312 7.36-3.68 10.208-4.736 5.728-118.848 140-356.512 163.968-8.8 0.608-16.672-5.536-17.536-14.304-0.896-8.8 5.536-16.64 14.304-17.536 201.184-20.288 310.496-126.24 331.424-148.48v-313.856c0-286.464-299.616-446.368-384-485.728v965.728c0 8.832-7.168 16-16 16z" />
<glyph unicode="&#xe029;" glyph-name="trophy3" horiz-adv-x="1088" d="M816 864c8.832 0 16 7.168 16 16s-7.168 16-16 16h-544c-8.832 0-16-7.168-16-16s7.168-16 16-16h544zM816 832h-608c-105.056 0-154.016-37.312-176.608-68.608-27.648-38.4-32.832-89.696-14.592-144.448 28.224-84.672 123.072-186.4 181.376-231.584 2.944-2.272 6.4-3.36 9.824-3.36 4.768 0 9.504 2.112 12.672 6.208 5.408 6.976 4.128 17.024-2.848 22.464-53.568 41.472-144.8 138.944-170.624 216.416-14.944 44.704-11.328 85.76 10.176 115.584 26.080 36.192 78.144 55.328 150.624 55.328h48v-304c0-215.232 213.536-339.232 257.152-362.304-0.672-1.792-1.152-3.68-1.152-5.696v-80c0-8.832 7.168-16 16-16s16 7.168 16 16v80c0 1.856-0.48 3.584-1.056 5.248 48.448 22.784 289.056 146.752 289.056 362.752v304h48c72.48 0 124.544-19.136 150.624-55.328 21.504-29.824 25.12-70.88 10.176-115.616-20.16-60.512-120.608-177.696-170.624-216.416-6.976-5.408-8.256-15.456-2.848-22.464 3.168-4.064 7.904-6.176 12.672-6.176 3.424 0 6.88 1.088 9.824 3.328 55.424 42.944 158.752 163.808 181.376 231.584 18.24 54.752 13.056 106.048-14.592 144.448-22.592 31.328-71.552 68.64-176.608 68.64h-64zM800 496c0-194.976-228.864-313.728-271.552-334.176-39.296 21.28-240.448 139.744-240.448 334.176v304h512v-304zM352 0c-36.512 0-64-27.52-64-64v-48c0-8.832 7.168-16 16-16h448c8.832 0 16 7.168 16 16v45.6c0 37.216-28.128 66.4-64 66.4h-352zM736-66.4v-29.6h-416v32c0 18.848 13.152 32 32 32h352c18.24 0 32-14.784 32-34.4z" />
<glyph unicode="&#xe02a;" glyph-name="flag4" horiz-adv-x="896" d="M432 864h-352c-8.832 0-16-7.168-16-16v-480c0-8.832 7.168-16 16-16h352.064c8.032 0 47.936-2.368 47.936-48 0-8.832 7.168-16 16-16s16 7.168 16 16v480.512c-0.864 27.488-18.688 79.488-80 79.488zM480 369.408c-16.032 10.784-34.816 14.592-48 14.592h-336v448h336c44.672 0 47.808-43.616 48-48v-414.592zM842.528 224h-442.944c0.192-0.032-22.496-0.288-36.48 13.408-8.032 7.904-12.128 19.52-12.128 34.592 0 8.832-7.168 16-16 16s-16-7.168-16-16c0-24.128 7.392-43.52 22.016-57.696 21.984-21.28 52.736-22.304 58.208-22.304 0.48 0 443.328 0 443.328 0 12.448 0 23.008 5.024 29.792 14.176 8.992 12.128 8.8 27.616 5.92 37.184-18.016 59.296-113.312 188.256-140.128 223.872 25.824 39.712 122.080 190.080 140.128 249.376 2.912 9.568 3.104 25.024-5.92 37.184-6.784 9.184-17.344 14.208-29.792 14.208h-281.184c-8.832 0-16-7.168-16-16s7.168-16 16-16h281.184c3.168 0 3.808-0.896 4.064-1.248 1.504-1.984 1.76-6.304 0.992-8.8-19.072-62.752-141.184-248.704-142.432-250.592-3.744-5.696-3.456-13.12 0.672-18.528 1.216-1.6 122.848-160.576 141.76-222.752 0.736-2.528 0.512-6.816-0.992-8.832-0.256-0.352-0.896-1.248-4.064-1.248zM32-112v992c0 8.832-7.168 16-16 16s-16-7.168-16-16v-992c0-8.832 7.168-16 16-16s16 7.168 16 16z" />
<glyph unicode="&#xe02b;" glyph-name="map4" horiz-adv-x="1312" d="M295.648-125.664c0.288-0.192 0.672-0.096 0.96-0.288 2.336-1.184 4.768-2.048 7.392-2.048 1.408 0 2.816 0.192 4.224 0.576l347.776 94.912 347.776-94.912c1.408-0.384 2.816-0.576 4.224-0.576 2.624 0 5.056 0.864 7.36 2.080 0.32 0.16 0.672 0.096 0.96 0.288l288 176c6.112 3.744 8.992 11.136 7.040 18.016l-159.488 560c-1.312 4.704-4.736 8.544-9.28 10.432-4.544 1.824-9.632 1.536-13.952-0.832l-158.784-89.088c-7.68-4.32-10.432-14.080-6.112-21.792 4.32-7.744 14.048-10.464 21.824-6.112l141.088 79.2 150.624-528.832-256.48-156.768-60.928 487.392c-1.088 8.8-9.376 14.912-17.888 13.888-8.736-1.088-14.976-9.088-13.888-17.856l61.024-488.288-317.12 86.56v87.36c0 8.832-7.168 16-16 16s-16-7.168-16-16v-87.36l-317.152-86.56 61.024 488.288c1.088 8.768-5.12 16.768-13.888 17.856-8.704 1.024-16.768-5.088-17.888-13.888l-60.896-487.392-256.48 156.736 150.624 528.8 141.088-79.2c7.744-4.288 17.472-1.568 21.824 6.112 4.32 7.712 1.568 17.44-6.112 21.792l-158.816 89.12c-4.256 2.4-9.344 2.72-13.92 0.832-4.544-1.888-7.968-5.696-9.28-10.432l-159.488-560c-1.984-6.912 0.896-14.272 7.040-18.016l287.968-176zM645.152 148.224c3.072-2.816 6.944-4.224 10.848-4.224 3.84 0 7.68 1.376 10.752 4.128 10.656 9.696 261.248 239.648 261.248 475.872 0 152.544-119.456 272-272 272s-272-119.456-272-272c0-232.128 250.496-465.92 261.152-475.776zM656 864c136.8 0 240-103.168 240-240 0-195.104-191.776-394.784-239.904-441.824-48.032 47.584-240.096 249.888-240.096 441.824 0 136.832 103.2 240 240 240zM800 624c0 79.392-64.608 144-144 144s-144-64.608-144-144 64.608-144 144-144 144 64.608 144 144zM656 512c-61.76 0-112 50.24-112 112s50.24 112 112 112 112-50.24 112-112-50.24-112-112-112z" />
<glyph unicode="&#xe02c;" glyph-name="puzzle" horiz-adv-x="1120" d="M641.344 770.976c0 62.24-49.888 125.024-161.344 125.024-98.144 0-164.128-50.24-164.128-125.024 0-43.648 17.664-63.552 29.344-76.736 6.176-6.944 8.672-10.080 8.672-13.216 0-5.184 0-8.32-17.856-9.024h-195.136c-75.040 0-140.896-59.808-140.896-128v-119.424c1.216-30.208 18.272-48.992 44.544-48.992 14.944 0 26.016 8.544 36.768 16.832 14.4 11.040 30.688 23.584 62.688 23.584 54.272 0 112-44.864 112-128 0-84.128-58.496-142.784-111.008-142.784-31.68 0-48.256 13.728-62.912 25.824-10.976 9.088-22.304 18.496-37.568 18.496-26.24 0-43.328-18.784-44.544-49.632v-131.264c0.032-71.52 67.2-136.64 140.928-136.64h196.128c29.696 1.216 48.864 18.72 48.864 44.672 0 15.584-8.864 25.6-16.704 34.432-10.496 11.808-21.312 24-21.312 55.488 0 56.512 51.328 93.024 130.72 93.024 79.424 0 130.752-36.512 130.752-93.024 0-31.488-10.848-43.68-21.312-55.488-7.84-8.832-16.736-18.848-16.736-34.432 0-26.304 18.72-43.392 49.536-44.64l126.112-0.032c68.864 0 116.992 53.664 116.992 130.496v148.8c0.832 3.904 10.688 18.816 25.728 18.816 3.072 0 6.176-2.528 13.088-8.672 13.12-11.744 32.992-29.504 76.576-29.504 69.888 0.032 140.672 53.6 140.672 156.064 0 110.528-64.288 160-128 160-43.008 0-67.84-19.648-84.288-32.64-7.296-5.76-14.144-11.2-18.048-11.2-15.072 0-24.928 14.976-25.664 18.272-0.032 0.256-0.032 0.512-0.064 0.768v114.656c0 77.728-49.216 134.144-116.992 134.144h-125.472c-0.416 0.032-0.832 0.064-1.28 0.096-16.896 0.64-16.896 3.744-16.896 8.928 0 3.136 2.496 6.24 8.672 13.216 11.68 13.152 29.376 33.088 29.376 76.736zM588.032 715.456c-7.84-8.832-16.736-18.88-16.736-34.464 0-17.6 8.032-38.784 47.072-40.864 0.736-0.096 1.472-0.128 2.24-0.128h126.336c55.808 0 85.056-51.392 85.056-102.144v-116.256c0-1.152-0.224-2.272 0-3.36 2.944-19.552 26.944-46.048 57.664-46.048 15.040 0 26.112 8.768 37.92 18.080 15.232 12.064 32.544 25.728 64.416 25.728 58.304 0 96-50.24 96-128 0-85.248-56.352-124.032-108.672-124.032-31.328 0-43.488 10.848-55.264 21.344-8.832 7.872-18.848 16.8-34.4 16.8-30.72 0-54.752-26.528-57.664-46.080-0.224-1.088 0-2.208 0-3.36v-150.208c0-48.992-26.336-98.464-85.056-98.464h-125.472c-18.176 0.736-18.176 9.12-18.176 12.672 0 3.104 2.496 6.24 8.672 13.216 11.68 13.184 29.376 33.088 29.376 76.736 0 62.24-50.304 125.024-162.752 125.024-97.312 0-162.72-50.24-162.72-125.024 0-43.648 17.664-63.552 29.376-76.736 6.144-6.944 8.672-10.080 8.672-13.216 0-3.584 0-11.968-17.536-12.672h-195.488c-54.944 0-108.896 51.84-108.896 104.64v130.624c0.704 18.272 8.992 18.272 12.544 18.272 3.712 0 10.24-5.408 17.184-11.136 15.936-13.216 40.096-33.184 83.296-33.184 69.024 0 142.976 70.24 142.976 174.784 0 103.936-74.176 160-144 160-42.88 0-66.528-18.176-82.176-30.24-7.104-5.472-13.248-10.176-17.28-10.176-3.52 0-11.808 0-12.544 17.632v118.784c0 56.576 57.408 96 108.896 96h195.68c0.512 0 0.992 0.032 1.504 0.064v0c39.52 1.472 47.808 23.104 47.808 40.96 0 15.584-8.864 25.6-16.704 34.432-10.496 11.808-21.312 24-21.312 55.52 0 55.648 53.088 93.024 132.128 93.024 78.56 0 129.344-36.512 129.344-93.024 0-31.488-10.848-43.712-21.312-55.52z" />
<glyph unicode="&#xe02d;" glyph-name="basket" horiz-adv-x="1344" d="M1264 448h-1184c-4.928 0-9.6-2.272-12.64-6.144s-4.096-8.928-2.912-13.728l128.192-512.544c3.072-10.784 12.512-43.584 47.36-43.584h864c34.976 0 44.32 32.832 47.52 44.128l128 512c1.184 4.768 0.128 9.856-2.912 13.728-3.008 3.872-7.68 6.144-12.608 6.144zM1120.64-75.616c-5.824-20.384-11.84-20.384-16.64-20.384h-864c-4.768 0-10.752 0-16.48 19.872l-123.008 492.128h1143.008l-122.88-491.616zM592 0c8.832 0 16 7.168 16 16v288c0 8.832-7.168 16-16 16s-16-7.168-16-16v-288c0-8.832 7.168-16 16-16zM367.968 0c0.608 0 1.184 0.032 1.824 0.096 8.768 0.992 15.104 8.896 14.112 17.664l-32 288c-0.96 8.8-8.64 15.008-17.696 14.144-8.768-0.992-15.104-8.896-14.112-17.664l32-288c0.896-8.192 7.84-14.24 15.872-14.24zM784 0c8.832 0 16 7.168 16 16v288c0 8.832-7.168 16-16 16s-16-7.168-16-16v-288c0-8.832 7.168-16 16-16zM974.208 0.096c0.64-0.064 1.216-0.096 1.824-0.096 8.032 0 14.976 6.048 15.872 14.24l32 288c0.96 8.768-5.344 16.672-14.112 17.664-9.184 0.896-16.704-5.344-17.696-14.144l-32-288c-0.96-8.768 5.344-16.672 14.112-17.664zM1104 512c3.712 0 7.424 1.28 10.464 3.904 6.688 5.792 7.392 15.872 1.632 22.56l-304 352c-5.792 6.72-15.872 7.392-22.56 1.664-6.688-5.792-7.392-15.872-1.632-22.56l304-352c3.168-3.68 7.616-5.568 12.096-5.568zM570.112 892.384c-6.816 5.536-16.896 4.608-22.496-2.272l-288-352c-5.6-6.816-4.608-16.896 2.24-22.528 2.976-2.4 6.592-3.584 10.144-3.584 4.64 0 9.216 1.984 12.384 5.888l288 352c5.6 6.816 4.576 16.896-2.272 22.496zM1328 576h-128c-8.832 0-16-7.168-16-16s7.168-16 16-16h128c8.832 0 16 7.168 16 16s-7.168 16-16 16zM432 544h512c8.832 0 16 7.168 16 16s-7.168 16-16 16h-512c-8.832 0-16-7.168-16-16s7.168-16 16-16zM16 544h160c8.832 0 16 7.168 16 16s-7.168 16-16 16h-160c-8.832 0-16-7.168-16-16s7.168-16 16-16z" />
<glyph unicode="&#xe02e;" glyph-name="envelope2" horiz-adv-x="1216" d="M641.92 882.784c-18.56 17.056-49.248 17.056-67.808 0l-566.016-341.472c-4.8-2.912-7.744-8.096-7.744-13.696v-605.504c0-27.616 22.592-50.112 50.368-50.112h1114.56c27.776 0 50.368 22.496 50.368 50.112v605.504c0 5.6-2.944 10.784-7.744 13.696l-565.984 341.472zM592.128 856.32c1.12 0.672 2.112 1.472 3.040 2.368 3.456 3.424 8 5.312 12.832 5.312s9.376-1.888 12.8-5.312c0.928-0.896 1.952-1.696 3.040-2.368l551.264-332.608-399.296-237.952c-7.584-4.544-10.080-14.336-5.568-21.952 3.008-5.024 8.32-7.808 13.76-7.808 2.784 0 5.6 0.704 8.16 2.24l391.84 233.28v-568.224l-541.92 360.512c-17.216 13.728-51.008 13.728-67.072 0.8l-543.008-361.152v568.064l391.808-233.28c2.56-1.536 5.408-2.24 8.192-2.24 5.44 0 10.752 2.784 13.76 7.808 4.512 7.584 2.016 17.408-5.568 21.952l-399.328 237.952 551.264 332.608zM1154.88-96h-1094.016l532.992 354.752c5.536 4.416 22.784 4.384 29.408-0.8l531.616-353.952zM208 480h800c8.832 0 16 7.168 16 16s-7.168 16-16 16h-800c-8.832 0-16-7.168-16-16s7.168-16 16-16z" />
<glyph unicode="&#xe02f;" glyph-name="streetsign" horiz-adv-x="928" d="M480-112v304c0 8.832-4.256 32-13.088 32s-18.912-7.168-18.912-16v-320c0-8.832 10.048-16 18.912-16s13.088 7.168 13.088 16zM482.912 846.016v33.984c0 8.832-7.168 16-16 16s-16-7.168-16-16v-33.984c0-8.832 7.168-16 16-16s16 7.136 16 16zM124.48 784.928l-114.144-89.536c-6.56-6.048-10.336-14.592-10.336-23.392s3.776-17.344 11.328-24.256l112.16-87.84c9.824-9.056 27.328-15.904 40.736-15.904h442.496c18.336 0 33.28 14.816 33.28 33.056v189.888c0 18.24-14.944 33.056-33.28 33.056h-442.496c-13.408 0-30.912-6.848-39.744-15.072zM608 577.056c0-0.48-0.576-1.056-1.28-1.056h-442.496c-5.44 0-15.072 3.744-20 8.256l-113.152 86.816 114.112 89.536c4 3.648 13.6 7.392 19.040 7.392l443.776-1.056v-189.888zM804.512 496.096c-9.824 9.056-27.328 15.904-40.736 15.904h-442.496c-18.336 0-33.28-14.816-33.28-33.056v-189.92c0-18.208 14.944-33.024 33.28-33.024h442.496c13.408 0 30.912 6.848 39.776 15.072l114.112 89.536c6.56 6.048 10.336 14.592 10.336 23.392s-3.776 17.344-11.328 24.256l-112.16 87.84zM320 480h443.776c5.44 0 15.072-3.744 20-8.256l113.152-86.816-114.112-89.536c-4-3.648-13.6-7.392-19.040-7.392h-443.776v192z" />
<glyph unicode="&#xe030;" glyph-name="telescope" horiz-adv-x="1120" d="M878.848 821.952c-1.696 4.224-5.088 7.52-9.344 9.088-4.256 1.536-8.992 1.248-12.992-0.864l-380.992-201.024c-7.168-3.776-10.368-12.32-7.456-19.872l7.84-20.512-219.936-120.608c-7.2-3.936-10.24-12.64-7.104-20.16l7.296-17.568-233.568-111.616c-7.68-3.68-11.136-12.704-7.872-20.576l47.936-115.52c2.56-6.144 8.48-9.888 14.784-9.888 1.792 0 3.584 0.288 5.344 0.928l244 86.432 7.296-17.568c2.528-6.112 8.448-9.888 14.784-9.888 1.472 0 2.944 0.192 4.448 0.64l232.832 67.104 6.976-18.208c2.368-6.304 8.416-10.272 14.88-10.272 1.568 0 3.136 0.224 4.704 0.704l416 128c4.288 1.312 7.808 4.352 9.728 8.384s2.080 8.704 0.416 12.832l-160 400.032zM86.4 208.992l-36.288 87.488 218.336 104.352 46.048-111.040-228.096-80.8zM358.112 268.064l-7.616 18.368c0 0 0 0 0 0l-58.976 142.24c0 0 0 0 0 0l-7.616 18.336 202.752 111.2 75.968-196.288 12-31.392-216.512-62.464zM617.6 307.68l-6.496 16.992c-0.096 0.352-0.032 0.768-0.192 1.12l-19.776 51.104-88.128 230.592 352.736 186.080 146.944-367.36-385.088-118.528zM926.848 885.952c-3.296 8.224-12.64 12.192-20.8 8.928-8.192-3.296-12.192-12.608-8.928-20.8l192-480c2.528-6.272 8.544-10.080 14.88-10.080 1.984 0 4 0.352 5.952 1.152 8.192 3.296 12.192 12.608 8.928 20.8l-192.032 480zM576 224h-96c-36.48 0-64-27.52-64-64v-42.080l-188.128-219.488c-5.76-6.688-4.992-16.8 1.728-22.56 3.008-2.592 6.72-3.872 10.4-3.872 4.512 0 8.992 1.888 12.128 5.6l187.232 218.4h72.64v-208c0-8.832 7.168-16 16-16s16 7.168 16 16v208h72.64l187.2-218.4c3.168-3.712 7.648-5.6 12.16-5.6 3.68 0 7.392 1.28 10.4 3.872 6.72 5.76 7.488 15.84 1.728 22.56l-188.128 219.488v39.68c0 37.216-28.096 66.4-64 66.4zM608 128h-160v32c0 18.848 13.152 32 32 32h96c18.24 0 32-14.784 32-34.4v-29.6z" />
<glyph unicode="&#xe031;" glyph-name="gears2" horiz-adv-x="1344" d="M118.144 200.96c5.632-1.344 13.28-8.288 15.488-14.624l11.2-27.008c2.528-5.184 2.048-15.456-0.96-20.384l-44.704-73.088c-9.568-15.68-7.584-37.888 5.28-52.288l37.856-37.824c13.184-11.712 36.448-13.824 51.616-4.64l73.088 44.704c4.576 2.816 14.4 3.808 21.28 0.576l26.976-11.136c5.44-1.888 12.384-9.504 13.728-15.136l20.064-83.328c4.256-17.664 21.12-32.192 39.232-33.856 0 0 11.104-1.024 27.744-1.024s27.744 1.024 27.776 1.024c18.080 1.632 34.944 16.192 39.2 33.856l20.096 83.328c1.344 5.6 8.256 13.248 14.592 15.456l27.008 11.2c4.768 2.336 15.808 1.856 20.384-0.96l73.088-44.704c6.432-3.936 14.112-6.016 22.272-6.016 11.040 0 21.728 3.872 30.016 11.264l37.824 37.856c12.224 13.728 14.208 35.936 4.64 51.616l-44.704 73.088c-3.008 4.928-3.488 15.2-0.576 21.28l11.136 26.976c1.888 5.44 9.504 12.384 15.136 13.728l83.328 20.064c17.664 4.256 32.192 21.12 33.856 39.232 0 0 1.024 11.104 1.024 27.744s-1.024 27.744-1.024 27.776c-1.632 18.080-16.192 34.944-33.856 39.232l-83.296 20.032c-5.632 1.344-13.28 8.288-15.488 14.624l-11.2 27.008c-2.528 5.184-2.048 15.456 0.96 20.384l44.704 73.088c9.568 15.68 7.584 37.888-5.28 52.288l-37.856 37.824c-13.216 11.744-36.512 13.856-51.616 4.64l-73.088-44.704c-4.576-2.784-14.432-3.84-21.28-0.576l-26.976 11.136c-5.44 1.888-12.352 9.504-13.696 15.136l-20.096 83.328c-4.256 17.664-21.12 32.192-39.232 33.856-0.064-0.032-11.168 0.992-27.808 0.992s-27.744-1.024-27.776-1.024c-18.080-1.632-34.944-16.192-39.232-33.856l-20.032-83.264c-1.344-5.632-8.288-13.28-14.624-15.488l-27.008-11.2c-4.8-2.336-15.808-1.824-20.384 0.96l-73.056 44.704c-15.136 9.216-37.92 7.616-52.288-5.248l-37.824-37.856c-12.224-13.728-14.208-35.936-4.64-51.616l44.704-73.088c3.008-4.928 3.488-15.2 0.576-21.28l-11.136-26.976c-1.888-5.44-9.504-12.384-15.136-13.728l-83.328-20.064c-17.664-4.256-32.192-21.12-33.856-39.232 0.064 0-0.96-11.104-0.96-27.744s1.024-27.744 1.024-27.776c1.632-18.080 16.192-34.944 33.856-39.232l83.264-20.032zM32 288c0 14.656 0.864 24.544 0.896 24.864 0.384 4.32 5.28 9.984 9.472 11.008l83.328 20.064c16.16 3.904 32.448 18.688 37.504 33.504l10.368 25.184c7.296 14.944 6.272 36.896-2.4 51.104l-44.704 73.056c-2.144 3.552-1.536 10.592 0.576 12.992l36.512 36.544c2.912 2.592 10.336 3.232 13.664 1.216l73.088-44.704c13.856-8.48 37.6-9.056 50.176-2.816l25.216 10.432c15.712 5.408 30.496 21.696 34.4 37.888l20.032 83.296c1.024 4.224 6.688 9.12 11.008 9.504 0.32 0 10.208 0.864 24.864 0.864s24.544-0.864 24.864-0.896c4.32-0.384 9.984-5.28 11.008-9.472l20.064-83.296c3.904-16.16 18.656-32.48 33.504-37.536l25.184-10.368c14.624-7.168 37.28-6.048 51.104 2.4l73.056 44.704c3.328 2.016 11.2 0.96 12.992-0.576l36.544-36.512c2.752-3.104 3.36-10.112 1.216-13.664l-44.704-73.088c-8.672-14.176-9.696-36.16-2.816-50.176l10.432-25.216c5.408-15.712 21.696-30.496 37.888-34.4l83.296-20.032c4.224-1.024 9.12-6.688 9.504-11.008 0-0.32 0.864-10.208 0.864-24.864s-0.864-24.544-0.896-24.864c-0.384-4.32-5.28-9.984-9.472-11.008l-83.328-20.064c-16.16-3.904-32.448-18.688-37.504-33.504l-10.368-25.184c-7.296-14.944-6.272-36.896 2.4-51.104l44.704-73.056c2.144-3.552 1.536-10.592-0.576-12.992l-36.512-36.544c-1.728-1.536-4.864-2.528-8.032-2.528-2.208 0-4.256 0.48-5.6 1.312l-73.088 44.704c-13.824 8.448-37.568 9.056-50.176 2.816l-25.216-10.432c-15.712-5.408-30.496-21.728-34.368-37.888l-20.064-83.296c-1.024-4.224-6.688-9.12-11.008-9.504-0.352 0-10.24-0.864-24.896-0.864s-24.544 0.864-24.864 0.896c-4.32 0.384-9.984 5.28-11.008 9.472l-20.064 83.328c-3.904 16.16-18.688 32.448-33.504 37.504l-25.184 10.368c-6.528 3.2-14.432 4.864-22.88 4.864-10.528 0-20.544-2.592-28.224-7.296l-73.056-44.704c-3.328-2.016-11.232-0.928-12.992 0.576l-36.544 36.544c-2.752 3.104-3.36 10.112-1.216 13.664l44.704 73.088c8.672 14.176 9.696 36.16 2.816 50.176l-10.432 25.216c-5.408 15.712-21.696 30.496-37.888 34.4l-83.296 20.032c-4.224 1.024-9.12 6.688-9.504 11.008 0 0.32-0.864 10.208-0.864 24.864zM416 112c97.056 0 176 78.944 176 176s-78.944 176-176 176-176-78.944-176-176 78.944-176 176-176zM416 432c79.392 0 144-64.608 144-144s-64.608-144-144-144-144 64.608-144 144 64.608 144 144 144zM879.264 725.952c-1.28-1.952-5.92-4.416-8.288-4.416l-59.552 0.576c-14.464 0-28.96-10.272-33.696-23.872 0 0-2.624-7.456-5.504-18.88s-4.096-19.232-4.096-19.232c-2.24-14.432 5.792-30.4 18.688-37.152l52.512-27.52c2.016-1.056 4.992-5.504 5.312-8.736l2.976-20.32c0.48-2.24-1.056-7.36-2.688-8.96l-42.304-41.472c-10.592-10.368-13.376-28.096-6.080-42.016l19.168-32c8.096-11.904 25.632-17.984 39.392-13.696l58.368 17.856c3.168 0 6.336-1.216 8.128-2.656l16.48-12.16c1.92-1.28 4.448-5.984 4.416-8.288l-0.576-59.264c-0.128-14.592 10.112-29.216 23.872-34.016 0 0 7.456-2.624 18.88-5.504s19.232-4.096 19.232-4.096c0.832-0.128 4.16-0.384 4.992-0.384 13.056 0 26.304 7.84 32.16 19.072l27.52 52.512c1.056 2.016 5.504 4.992 8.736 5.312l21.216 3.072c3.2 0 6.976-1.664 8.032-2.752l41.472-42.304c10.080-10.304 27.072-13.984 42.016-6.080l31.968 19.168c12.224 8.32 18.144 25.28 13.728 39.392l-17.664 56.544c-0.672 2.176 0.384 7.424 2.496 9.952l12.16 16.48c1.28 1.952 5.92 4.416 8.288 4.416l59.552-0.576c14.464 0 28.96 10.272 33.696 23.872 0 0 2.624 7.456 5.504 18.88s4.096 19.232 4.096 19.232c2.24 14.432-5.792 30.4-18.688 37.152l-52.512 27.52c-2.016 1.056-4.992 5.504-5.312 8.736l-2.944 20.256c-0.48 2.24 1.056 7.36 2.688 8.96l42.304 41.472c10.592 10.368 13.376 28.096 6.080 42.016l-19.168 32c-8.096 11.872-25.6 18.016-39.392 13.728l-58.4-17.856c-3.168 0-6.336 1.216-8.128 2.656l-16.48 12.16c-1.92 1.28-4.448 5.984-4.416 8.288l0.576 59.264c0.128 14.592-10.112 29.216-23.872 34.016 0 0-7.456 2.624-18.88 5.504s-19.232 4.096-19.232 4.096c-0.832 0.096-4.16 0.352-4.992 0.352-13.056 0-26.304-7.84-32.16-19.072l-27.52-52.512c-1.056-2.016-5.504-4.992-8.736-5.312l-21.216-3.040c-3.2 0-6.976 1.664-8.032 2.752l-41.472 42.304c-10.048 10.272-27.008 13.984-42.016 6.080l-32-19.136c-12.224-8.32-18.144-25.28-13.728-39.392l17.664-56.544c0.672-2.176-0.384-7.424-2.496-9.952l-12.128-16.48zM905.504 707.648l10.976 14.912c8.576 10.144 11.904 26.688 7.936 39.328l-17.632 56.512c-0.16 0.896 0.544 2.912 0.384 2.944l30.336 18.176 3.616-0.544 41.504-42.304c7.36-7.488 19.488-12.352 30.88-12.352 2.624 0 5.152 0.256 6.528 0.608l18.4 2.72c13.184 1.152 27.232 10.496 33.376 22.208l27.488 52.48c0.512 0.8 2.528 1.952 3.84 1.952 0.352-0.032 6.88-1.12 16.416-3.488 9.504-2.4 15.776-4.544 16.064-4.672 0.992-0.416 2.432-2.496 2.496-3.52l-0.576-59.264c-0.128-13.248 7.84-28.128 18.144-34.848l14.88-10.976c9.888-8.352 26.848-11.872 39.328-7.936l56.768 17.664c1.344 0 2.848-0.832 2.656-0.416l18.176-30.336c0.352-0.832 0-2.944-0.544-3.616l-42.304-41.504c-9.44-9.312-14.336-25.44-11.744-37.408l2.688-18.4c1.152-13.184 10.496-27.232 22.24-33.376l52.48-27.488c0.896-0.576 2.016-2.816 1.952-3.84-0.032-0.352-1.12-6.88-3.488-16.416-2.4-9.504-4.544-15.776-4.672-16.064-0.416-0.992-2.496-2.432-3.52-2.496l-59.584 0.576c-13.152 0-27.872-7.968-34.528-18.144l-10.944-14.88c-8.576-10.144-11.904-26.688-7.936-39.328l17.632-56.512c0.16-0.864-0.544-2.912-0.384-2.944l-30.336-18.176-3.616 0.544-41.504 42.304c-7.36 7.488-19.488 12.352-30.88 12.352-2.624 0-5.152-0.256-6.528-0.608l-18.4-2.72c-13.184-1.152-27.232-10.496-33.376-22.208l-27.488-52.48c-0.512-0.8-2.528-1.952-3.84-1.952v0c-0.352 0.032-6.88 1.12-16.416 3.488-9.504 2.4-15.776 4.544-16.064 4.672-0.992 0.416-2.432 2.496-2.496 3.52l0.576 59.264c0.128 13.248-7.84 28.128-18.144 34.848l-14.88 10.976c-7.104 6.016-17.568 9.6-28 9.6-4.032 0-7.872-0.576-11.36-1.664l-56.768-17.664c-1.376 0-2.88 0.736-2.656 0.416l-18.176 30.336c-0.352 0.832 0 2.944 0.544 3.616l42.304 41.504c9.44 9.312 14.336 25.44 11.744 37.408l-2.688 18.368c-1.152 13.184-10.496 27.232-22.24 33.376l-52.48 27.488c-0.896 0.576-2.016 2.816-1.952 3.84 0.032 0.352 1.12 6.88 3.488 16.416 2.4 9.504 4.544 15.776 4.672 16.064 0.416 0.992 2.496 2.432 3.52 2.496l59.584-0.576c13.152 0 27.872 7.968 34.528 18.144zM1056 512c52.928 0 96 43.072 96 96s-43.072 96-96 96-96-43.072-96-96 43.072-96 96-96zM1056 672c35.296 0 64-28.704 64-64s-28.704-64-64-64-64 28.704-64 64 28.704 64 64 64z" />
<glyph unicode="&#xe032;" glyph-name="key3" d="M469.856 425.664c3.744 0 7.52 1.312 10.56 3.968l362.144 317.504-21.12 24.064-362.144-317.472c-6.656-5.824-7.328-15.936-1.472-22.592 3.168-3.616 7.584-5.472 12.032-5.472zM326.016-128c196.544 0 313.984 154.56 313.984 304 0 43.072-10.304 90.528-25.536 121.344l144.704 72.352c5.408 2.72 8.832 8.256 8.832 14.304v128h96c0.352 0 3.264 0.192 3.616 0.192 21.312 1.44 27.68 8.224 28.384 31.808v128h96c4.128 0 6.976-0.448 8.896-0.736 3.872-0.608 11.104-1.728 17.376 3.904 6.464 5.76 6.176 13.056 5.92 19.488-0.064 2.304-0.192 5.344-0.192 9.344v144.992c0 25.92-21.088 47.008-47.008 47.008h-124c-11.328 0-22.336-4.128-31.008-11.648l-421.984-369.92c-20.768 4.16-52.16 9.568-74.016 9.568-179.744 0-325.984-146.24-325.984-325.984s146.24-326.016 326.016-326.016zM326.016 492c16.032 0 43.488-3.84 75.328-10.496 4.96-1.088 10.048 0.32 13.824 3.616l427.872 375.104c2.784 2.432 6.336 3.776 9.952 3.776h124c8.288 0 15.008-6.72 15.008-15.008v-144.992h-112c-8.832 0-16-7.168-16-16v-144h-112c-8.832 0-16-7.168-16-16v-134.112l-151.168-75.584c-4.192-2.080-7.264-5.952-8.384-10.496s-0.192-9.376 2.56-13.184c14.080-19.424 28.992-67.648 28.992-118.624 0-133.696-105.472-272-281.984-272-162.112 0-294.016 131.904-294.016 294.016s131.904 293.984 294.016 293.984zM272 32c61.76 0 112 50.24 112 112s-50.24 112-112 112-112-50.24-112-112 50.24-112 112-112zM272 224c44.096 0 80-35.904 80-80s-35.904-80-80-80-80 35.904-80 80 35.904 80 80 80z" />
<glyph unicode="&#xe033;" glyph-name="paperclip2" horiz-adv-x="1088" d="M178.784-123.744c64.48 0 133.856 32.832 182.624 81.632l540.256 549.408c27.712 27.712 43.136 64.448 43.392 103.392 0.288 39.040-14.688 75.648-42.112 103.104-56.576 56.544-149.152 56.032-206.784-1.536l-414.112-432.96c-6.496-6.816-6.272-17.664 0.576-24.192 6.816-6.528 17.6-6.272 24.192 0.544l413.824 432.704c43.936 43.968 114.912 44.512 158.112 1.28 20.896-20.896 32.32-48.832 32.096-78.656-0.192-29.92-12.064-58.112-33.472-79.552l-540.256-549.44c-56.832-56.8-173.632-108.32-243.68-38.208-33.184 33.184-49.824 73.888-48.096 117.728 1.696 43.52 22.176 87.040 57.824 122.656l617.472 626.688c32.832 32.832 84.128 51.84 140.672 52.032 0.352 0 0.672 0 1.024 0 56.064 0 106.656-18.464 138.944-50.752 32.512-32.48 51.008-83.488 50.784-139.968-0.224-56.544-19.232-107.808-52.288-140.864l-476.64-495.52c-6.56-6.816-6.336-17.632 0.48-24.192 6.784-6.528 17.632-6.336 24.16 0.48l476.416 495.296c39.2 39.168 61.824 99.2 62.048 164.672 0.288 65.504-21.888 125.408-60.768 164.288-38.656 38.656-98.048 60.8-163.136 60.8-0.384 0-0.768 0-1.152 0-65.504-0.256-125.536-22.88-164.8-62.144l-617.504-626.72c-86.432-86.432-90.464-207.84-9.632-288.672 30.304-30.272 68.928-43.328 109.536-43.328z" />
<glyph unicode="&#xe034;" glyph-name="attachment3" d="M607.552 368.928c5.248-0.576 10.464-0.832 15.68-0.832 38.912 0 76.224 15.392 104.256 43.424l236.96 236.96c27.712 27.712 43.168 64.448 43.392 103.392 0.288 39.040-14.688 75.648-42.112 103.104-27.2 27.2-63.36 42.144-102.016 42.144-0.352 0-0.672 0-1.056 0-38.944-0.256-75.648-15.68-103.36-43.392l-236.96-236.96c-35.040-35.040-50.208-84.768-40.608-133.024 1.856-9.28 11.072-15.328 20.128-13.408 9.28 1.856 15.296 10.848 13.44 20.096-7.392 37.024 4.288 75.232 31.232 102.144l236.96 236.96c21.312 21.344 49.536 33.184 79.424 33.376 31.2 0 57.76-11.2 78.656-32.096s32.32-48.864 32.128-78.656c-0.224-29.92-12.064-58.112-33.408-79.424l-236.96-236.96c-24.448-24.416-58.016-36.256-92.128-32.768-9.12 1.056-17.824-5.792-18.816-15.2-1.024-9.472 5.792-17.888 15.168-18.88zM484.48 151.264c36.736 36.736 51.456 88.608 39.328 138.688-2.208 9.184-11.232 14.912-20.672 12.608-9.184-2.208-14.816-11.456-12.608-20.64 9.312-38.432-2.016-78.208-30.272-106.496l-236.96-236.96c-21.312-21.344-49.536-33.184-79.424-33.376-30.688-0.16-57.76 11.168-78.656 32.096-20.896 20.896-32.32 48.832-32.096 78.656 0.192 29.92 12.064 58.112 33.376 79.456l236.96 236.96c24.672 24.672 58.304 36.608 92.992 32.672 9.216-0.704 17.888 5.664 18.944 15.072 1.056 9.376-5.664 17.856-15.072 18.944-44.928 5.056-88.96-10.368-121.056-42.464l-236.96-236.96c-27.712-27.712-43.136-64.448-43.392-103.392-0.288-39.040 14.688-75.648 42.112-103.104 27.2-27.2 63.36-42.144 102.016-42.144 0.352 0 0.672 0 1.056 0 38.944 0.256 75.648 15.68 103.36 43.392l237.024 236.992zM727.488 612.096c-6.688 6.688-17.504 6.688-24.192 0l-432-432c-6.688-6.656-6.688-17.504 0-24.192 3.328-3.328 7.712-5.024 12.096-5.024s8.736 1.664 12.096 5.024l432 432c6.688 6.688 6.688 17.504 0 24.192z" />
<glyph unicode="&#xe035;" glyph-name="pricetags" horiz-adv-x="1344" d="M1296 896h-320c-22.112 0-50.368-12.032-65.504-27.84l-42.56-42.88c-6.208-6.272-6.144-16.416 0.128-22.624 6.208-6.208 16.416-6.176 22.624 0.096l42.688 43.072c9.12 9.504 29.44 18.176 42.624 18.176h320c8.8 0 16-7.168 16-16v-321.568c0-13.152-8.672-33.472-18.368-42.784l-450.592-447.104c-6.432-6.112-17.12-5.952-23.36 0.256l-84.736 84.768c-6.24 6.24-16.384 6.24-22.624 0s-6.24-16.384 0-22.624l84.736-84.768c9.408-9.376 21.888-14.112 34.368-14.112 12.224 0 24.48 4.512 33.984 13.568l450.624 447.136c15.936 15.296 27.968 43.552 27.968 65.664v321.568c0 26.464-21.536 48-48 48zM1249.216 736c0 35.296-28.704 64-64 64s-64-28.704-64-64 28.704-64 64-64 64 28.704 64 64zM1153.216 736c0 17.632 14.336 32 32 32s32-14.368 32-32-14.336-32-32-32-32 14.368-32 32zM526.784 768c-22.112 0-50.368-12.032-65.536-27.84l-447.776-452.192c-18.176-18.944-17.92-49.504 0.672-68.096l333.696-333.696c9.12-9.152 21.344-14.176 34.432-14.176 12.672 0 24.64 4.768 33.888 13.632l450.592 447.104c15.968 15.296 28.032 43.552 28.032 65.696v321.568c0 26.464-21.536 48-48 48h-320zM864 720v-321.568c0-13.184-9.888-33.472-19.584-42.784l-450.592-447.104c-6.24-5.92-17.28-5.792-23.328 0.256l-333.728 333.664c-6.24 6.272-6.368 16.96-0.416 23.136l447.808 452.224c9.12 9.504 29.44 18.176 42.624 18.176h320c8.8 0 17.216-7.168 17.216-16zM736 672c-35.296 0-64-28.704-64-64s28.704-64 64-64 64 28.704 64 64-28.704 64-64 64zM736 576c-17.664 0-32 14.368-32 32s14.336 32 32 32 32-14.368 32-32-14.336-32-32-32z" />
<glyph unicode="&#xe036;" glyph-name="lightbulb" horiz-adv-x="704" d="M352 896c-169.28 0-352-134.592-352-352 0-107.296 42.688-197.568 124.672-265.984 0.864-1.088 1.856-2.016 2.944-2.816 60.832-65.984 63.904-78.528 64.32-107.552 0.192-11.488 0.096-14.88 0-16.736l-0.128-6.688c-0.48-14.464-1.216-38.688 28.768-47.84l259.008-56.992c1.152-0.256 2.304-0.384 3.424-0.384 7.36 0 13.984 5.088 15.616 12.576 1.92 8.64-3.552 17.184-12.192 19.072l-257.76 56.672c-4.96 1.504-5.376 1.632-4.928 15.936l0.096 6.112c0 0 0.32 2.496 0.064 18.752-0.608 40.608-9.44 60.224-73.888 129.888-1.248 1.536-2.752 2.816-4.416 3.776-75.392 64.096-113.6 145.568-113.6 242.208 0 197.664 166.080 320 320 320 157.312 0 320-119.712 320-320 0-127.296-61.696-197.472-112.576-241.632-1.76-0.832-3.328-2.016-4.704-3.488-65.184-70.528-74.016-90.144-74.624-130.752 0-0.96-0.032-2.080 0-3.296l-0.032-1.12c-0.096-2.432-0.448-3.776-0.416-4.288-1.088 0.16-3.744 0.576-3.744 0.576l-134.24 31.584c-8.704 1.984-17.216-3.328-19.232-11.904-2.016-8.608 3.296-17.216 11.904-19.264l132.608-31.104c1.76-0.64 17.696-5.824 31.136 3.616 5.856 4.128 12.672 12.224 13.888 27.712l0.096 1.504c0.032 1.024 0.064 2.080 0.064 3.168 0 0.288 0 0.576-0.032 0.832l0.032 1.472c0.416 28.864 3.424 41.408 64.16 107.392 0.288 0.224 0.608 0.448 0.864 0.704 85.344 71.712 126.848 159.488 126.848 268.288 0 220.32-178.976 352-352 352zM480-48c7.328 0 13.92 5.024 15.584 12.48 1.984 8.608-3.424 17.184-12.064 19.136l-256 58.048c-8.672 1.92-17.184-3.456-19.136-12.064-1.984-8.608 3.424-17.184 12.064-19.136l256-58.048c1.216-0.288 2.4-0.416 3.552-0.416zM243.488-49.728c-8.672 1.92-17.152-3.488-19.136-12.096-1.92-8.64 3.488-17.184 12.128-19.104l208-46.656c1.216-0.288 2.368-0.416 3.52-0.416 7.328 0 13.952 5.056 15.616 12.512 1.92 8.64-3.488 17.184-12.128 19.104l-208 46.656z" />
<glyph unicode="&#xe037;" glyph-name="layers2" d="M984.48 663.616l-369.376 208.48c-50.272 28.384-136.672 28.416-187.040 0l-369.376-208.48c-28.256-15.968-43.776-38.304-43.776-62.944s15.552-46.976 43.776-62.912l369.376-208.512c25.152-14.208 58.368-22.016 93.504-22.016 35.168 0 68.384 7.84 93.536 22.016l369.376 208.512c28.256 15.936 43.808 38.272 43.808 62.912s-15.584 46.976-43.808 62.944zM967.648 567.52l-369.376-208.512c-39.616-22.368-113.792-22.4-153.408 0l-369.376 208.512c-16.768 9.472-26.368 21.568-26.368 33.152 0 11.616 9.6 23.68 26.368 33.184l369.376 208.512c19.808 11.2 47.776 17.6 76.672 17.6 28.928 0 56.896-6.432 76.704-17.6l369.376-208.512c16.768-9.472 26.4-21.568 26.4-33.184 0.032-11.584-9.568-23.68-26.368-33.152zM984.48 444.832c-8.192 4.64-18.624 1.76-23.328-6.496-4.64-8.224-1.728-18.656 6.496-23.296 16.768-9.472 26.4-21.568 26.4-33.152s-9.632-23.68-26.4-33.152l-369.376-208.512c-41.536-23.456-111.808-23.488-153.408 0l-369.376 208.512c-16.768 9.472-26.368 21.568-26.368 33.152s9.6 23.68 26.368 33.152c8.224 4.64 11.136 15.072 6.496 23.296-4.672 8.256-15.136 11.168-23.328 6.496-28.256-15.936-43.776-38.304-43.776-62.944s15.52-47.008 43.776-62.944l369.376-208.512c26.208-14.784 59.872-22.208 93.504-22.208 33.664 0 67.328 7.392 93.536 22.208l369.376 208.512c28.256 15.936 43.808 38.304 43.808 62.944s-15.552 47.008-43.776 62.944zM984.48 230.272c-8.192 4.64-18.624 1.76-23.328-6.496-4.64-8.224-1.728-18.656 6.496-23.296 16.768-9.472 26.4-21.568 26.4-33.152s-9.632-23.68-26.4-33.184l-369.376-208.512c-41.536-23.456-111.808-23.488-153.408 0l-369.376 208.544c-16.768 9.472-26.368 21.568-26.368 33.184 0 11.584 9.6 23.68 26.368 33.152 8.224 4.64 11.136 15.072 6.496 23.296-4.672 8.224-15.136 11.168-23.328 6.496-28.192-15.968-43.744-38.304-43.744-62.976s15.52-47.008 43.776-62.944l369.376-208.512c26.208-14.784 59.872-22.208 93.504-22.208 33.664 0 67.328 7.392 93.536 22.208l369.376 208.512c28.256 15.968 43.808 38.304 43.808 62.944s-15.584 47.008-43.808 62.944z" />
<glyph unicode="&#xe038;" glyph-name="pencil3" d="M0-111.328c0-8.832 7.168-16 16-16h995.552c2.144 0 4.224 0.416 6.176 1.248s3.712 2.016 5.184 3.488c0.032 0.032 0.064 0.032 0.096 0.064 0.096 0.096 0.096 0.288 0.224 0.384 1.632 1.76 2.688 3.904 3.424 6.24 0.224 0.736 0.32 1.44 0.448 2.208 0.128 0.8 0.48 1.504 0.48 2.336 0 1.28-0.448 2.4-0.736 3.584-0.096 0.448 0.096 0.896-0.064 1.344l-101.12 310.88c-0.768 2.4-2.112 4.608-3.904 6.368l-547.744 547.776c-0.576 0.896-0.992 1.856-1.76 2.656l-119.648 119.648c-19.424 19.424-51.040 19.424-70.496 0l-167.52-167.52c-9.408-9.408-14.592-21.92-14.592-35.232s5.184-25.856 14.592-35.264l116.992-116.992c0.576-0.864 0.96-1.856 1.728-2.624l546.88-550.56c1.888-1.92 4.192-3.296 6.784-4.064l214.816-64h-885.792c-8.832 0.032-16-7.136-16-15.968zM203.584 570.848l501.984-495.552-18.464-64.064-519.84 523.296 36.32 36.32zM730.112 96l-503.936 497.44 77.984 77.984 499.424-500.736v-74.688h-73.472zM823.52 196l-496.736 498.048 33.248 33.248 518.752-518.752-55.264-12.544zM735.616 64h83.968c8.832 0 16 7.168 16 16v85.92l64.224 14.592 87.136-267.84-271.616 80.928 20.288 70.4zM32 678.144c0 4.768 1.856 9.216 5.216 12.608l167.52 167.52c6.944 6.944 18.24 6.976 25.248 0l107.904-107.904-192.736-192.736-107.904 107.904c-3.392 3.36-5.248 7.84-5.248 12.608z" />
<glyph unicode="&#xe039;" glyph-name="tools" horiz-adv-x="992" d="M6.752 715.328c-27.104-27.136-21.312-65.344 0.256-86.88 0.864-0.832 87.488-83.584 209.312-205.408 3.136-3.136 7.232-4.672 11.328-4.672s8.192 1.568 11.328 4.672c6.24 6.24 6.24 16.384 0 22.624-18.368 18.368-35.84 35.744-52.416 52.192l50.848 50.848c6.24 6.24 6.24 16.384 0 22.624s-16.384 6.24-22.624 0l-50.976-50.976c-28.512 28.16-53.632 52.736-74.080 72.672l115.68 115.68c6.24 6.24 6.24 16.384 0 22.624s-16.384 6.24-22.624 0l-116.032-116.032c-23.552 22.816-37.12 35.776-37.344 36-6.752 6.752-15.616 25.76 0 41.376l160 160c6.176 6.272 22.624 18.72 40.672 0.768 0.8-0.896 81.6-92.672 204.928-216 6.24-6.24 16.384-6.24 22.624 0s6.24 16.384 0 22.624c-122.56 122.528-202.752 213.6-204.224 215.264-29.824 29.76-65.792 20.832-86.624 0l-160.032-160zM685.408 123.328c-6.24 6.24-16.384 6.24-22.624 0l-50.912-50.88c-15.52 15.712-31.808 32.16-48.96 49.312-6.24 6.24-16.384 6.24-22.624 0s-6.24-16.384 0-22.624c118.528-118.496 201.312-207.008 202.496-208.288 10.976-11.008 26.016-17.056 42.336-17.056v0c16.8 0 33.792 6.56 44.32 17.12l159.936 161.824c20.128 20.128 21.28 54.272 2.496 73.12l-214.592 214.56c-6.24 6.24-16.384 6.24-22.624 0s-6.24-16.384 0-22.624l214.592-214.56c6.4-6.4 5.184-20.224-2.528-27.936l-159.968-161.824c-3.68-3.712-12.032-7.68-21.632-7.68 0 0 0 0 0 0-5.504 0-13.376 1.344-19.328 7.328-0.32 0.352-13.728 14.656-36.992 39.008l116.608 116.608c6.24 6.24 6.24 16.384 0 22.624s-16.384 6.24-22.624 0l-116.128-116.128c-19.968 20.768-44.448 46.016-72.32 74.432l51.072 51.072c6.24 6.208 6.24 16.32 0 22.592zM-9.376-122.528c3.072-3.136 7.2-4.8 11.456-4.8 1.536 0 3.072 0.224 4.576 0.672l320 95.328c2.592 0.768 4.896 2.144 6.784 4.064l546.88 550.56c0.768 0.768 1.152 1.76 1.728 2.624l116.992 116.992c9.408 9.44 14.624 21.952 14.624 35.296 0 13.312-5.216 25.824-14.624 35.2l-167.52 167.488c-18.816 18.816-51.68 18.816-70.496 0l-119.648-119.648c-0.768-0.768-1.184-1.76-1.76-2.656l-547.712-547.744c-1.792-1.792-3.136-3.968-3.904-6.368l-101.12-310.88c-1.856-5.664-0.416-11.84 3.744-16.128zM653.6 727.328l33.248-33.248-496.736-498.080-55.264 12.544 518.752 518.784zM210.080 170.688l499.424 500.736 77.952-77.952-503.936-497.472h-73.44v74.688zM846.368 534.528l-519.808-523.328-18.464 64.064 501.984 495.584 36.288-36.32zM113.856 180.512l64.224-14.592v-85.92c0-8.832 7.168-16 16-16h83.968l20.288-70.4-271.616-80.928 87.136 267.84zM783.68 858.272c6.752 6.752 18.496 6.752 25.248 0l167.52-167.52c3.36-3.36 5.216-7.84 5.216-12.608 0-4.736-1.856-9.248-5.248-12.64l-107.872-107.904-192.736 192.736 107.872 107.936z" />
<glyph unicode="&#xe03a;" glyph-name="tools-2" d="M907.328 852.672c3.68 3.68 5.344 8.928 4.448 14.048s-4.224 9.504-8.96 11.712c-73.312 34.56-160.32 19.392-217.536-38.112-54.336-54.688-73.312-140.576-47.968-212.384l-369.248-369.248c-20.064 7.168-41.504 10.752-63.872 10.752-54.848 0-108.032-21.824-145.888-59.904-57.024-57.344-73.088-142.080-40.992-215.904 2.112-4.864 6.496-8.384 11.712-9.344 5.248-0.992 10.592 0.672 14.304 4.448l111.712 112.288c7.36 7.424 19.232 8.416 25.376 2.176l48.224-50.464c7.008-7.072 6.688-17.984-0.704-25.44l-111.296-112c-3.68-3.68-5.312-8.928-4.416-14.048s4.224-9.472 8.928-11.68c26.528-12.512 54.432-18.816 82.912-18.816 50.304 0 98.080 20.224 134.624 56.96 54.336 54.656 73.312 140.544 47.936 212.352l369.248 369.28c20.096-7.168 41.536-10.752 63.904-10.752 54.848 0 108.032 21.824 145.888 59.904 57.024 57.344 73.088 142.080 40.992 215.904-2.112 4.864-6.496 8.384-11.712 9.344-5.152 0.896-10.56-0.672-14.304-4.448l-111.712-112.288c-6.88-6.912-18.56-6.848-25.632 0.32l-47.968 47.968c-7.232 7.264-7.2 18.176-0.032 25.408l112.032 111.968zM772.672 692.672l47.968-47.968c19.168-19.264 52-19.36 70.976-0.288l93.76 94.208c15.008-55.712-0.512-115.488-42.368-157.632-31.904-32.096-76.768-50.464-123.2-50.464-21.856 0-42.56 4.096-61.536 12.16-6.016 2.592-12.96 1.184-17.568-3.392l-384-384c-4.608-4.608-5.952-11.52-3.424-17.504 25.696-61.12 10.048-140-37.216-187.552-42.272-42.496-103.808-57.632-159.52-40.256l94.112 94.72c19.872 20 20.192 51.008 0.928 70.336l-48.192 50.464c-18.592 18.72-51.648 17.568-70.976-1.984l-93.76-94.208c-15.008 55.712 0.512 115.488 42.368 157.632 31.904 32.096 76.768 50.464 123.2 50.464 21.856 0 42.56-4.096 61.536-12.16 5.984-2.624 12.96-1.184 17.568 3.392l384 384c4.608 4.608 5.952 11.52 3.424 17.504-25.696 61.12-10.048 140.032 37.216 187.584 42.24 42.496 103.744 57.536 159.424 40.256l-94.72-94.752c-19.712-19.744-19.712-50.72 0-70.56zM934.72-84.704c-7.072-7.104-19.328-7.104-26.464 0.064l-320.96 320c-6.24 6.176-16.384 6.208-22.624-0.064-6.24-6.24-6.208-16.384 0.032-22.624l320.928-319.936c9.6-9.632 22.336-14.944 35.904-14.944 0 0 0 0 0 0 13.568 0 26.304 5.312 36.096 15.168l45.728 47.776c19.68 19.776 19.68 50.784-0.032 70.592l-320 320c-6.24 6.24-16.384 6.24-22.624 0s-6.24-16.384 0-22.624l319.968-319.968c7.328-7.36 7.328-18.048-0.224-25.664l-45.728-47.776zM187.328 795.328l-96 96c-6.24 6.24-16.384 6.24-22.624 0l-64-64c-6.24-6.24-6.24-16.384 0-22.624l96-96c3.104-3.136 7.2-4.704 11.296-4.704s8.192 1.568 11.328 4.672l20.672 20.704 244.672-244.672c3.136-3.136 7.232-4.704 11.328-4.704s8.192 1.568 11.328 4.672c6.24 6.24 6.24 16.384 0 22.624l-244.704 244.704 20.672 20.672c6.272 6.272 6.272 16.384 0.032 22.656zM112 742.624l-73.376 73.376 41.376 41.376 73.376-73.376-41.376-41.376z" />
<glyph unicode="&#xe03b;" glyph-name="scissors3" d="M816-32c61.76 0 112 50.24 112 112s-50.24 112-112 112-112-50.24-112-112 50.24-112 112-112zM816 160c44.096 0 80-35.872 80-80s-35.904-80-80-80-80 35.872-80 80 35.904 80 80 80zM599.424 129.6c0-46.432 11.424-104.672 26.752-137.632 31.36-79.584 93.056-119.968 183.424-119.968 118.208 0 214.4 96.192 214.4 214.4 0 114.976-90.176 198.4-214.4 198.4-141.216 0-187.296 75.872-189.12 79.008-0.64 1.088-1.376 2.112-2.24 3.040l-491.36 524.096c-4.48 4.768-11.456 6.304-17.568 3.936-6.080-2.4-10.112-8.32-10.112-14.88 0-308.832 205.952-470.88 356.32-589.152 80.416-63.264 143.904-113.184 143.904-161.248zM132.608 838.048l461.184-491.904c8.576-13.568 65.408-93.344 215.808-93.344 105.696 0 182.4-69.984 182.4-166.4 0-100.608-81.824-182.4-182.4-182.4-76.96 0-127.232 32.64-154.016 100.608-11.712 25.152-24.16 77.536-24.16 124.992 0 63.584-68.896 117.792-156.096 186.4-138.144 108.672-324.864 255.52-342.72 522.048zM96 80c0-61.76 50.24-112 112-112s112 50.24 112 112-50.24 112-112 112-112-50.24-112-112zM288 80c0-44.128-35.904-80-80-80s-80 35.872-80 80 35.904 80 80 80 80-35.872 80-80zM660.288 400.928c-6.528-5.952-7.008-16.064-1.056-22.592 3.168-3.456 7.488-5.216 11.84-5.216 3.84 0 7.712 1.376 10.784 4.192 113.12 103.040 242.944 253.28 242.944 502.688 0 6.56-4 12.48-10.112 14.88-6.080 2.336-13.056 0.832-17.568-3.936l-349.44-372.672c-6.048-6.432-5.728-16.576 0.736-22.592 6.432-6.016 16.544-5.76 22.624 0.704l320.448 341.76c-13.632-212.16-129.472-344.512-231.2-437.216zM349.152 291.328c8.224 3.2 12.32 12.448 9.152 20.672s-12.48 12.384-20.704 9.12c-6.752-2.624-14.048-5.856-21.888-9.344-27.008-12-60.64-26.976-101.312-26.976-124.224 0-214.4-83.424-214.4-198.4 0-118.208 96.192-214.4 214.4-214.4 90.368 0 152.064 40.384 183.008 119.104 16.192 34.72 18.592 110.72 18.592 152.896 0 8.608 24.384 26.976 38.976 37.952 13.472 10.112 27.392 20.608 36.992 31.424 5.856 6.624 5.248 16.736-1.344 22.592-6.592 5.888-16.736 5.248-22.592-1.344-7.488-8.48-20.096-17.952-32.32-27.136-26.592-20.032-51.712-38.912-51.712-63.488 0-66.304-5.824-118.432-15.968-140.288-26.4-67.072-76.672-99.712-153.632-99.712-100.576 0-182.4 81.824-182.4 182.4 0 96.448 76.704 166.4 182.4 166.4 47.488 0 86.112 17.216 114.336 29.792 7.296 3.264 14.112 6.272 20.416 8.736zM486.208 352.512c0-14.245 11.547-25.792 25.792-25.792s25.792 11.547 25.792 25.792c0 14.245-11.547 25.792-25.792 25.792s-25.792-11.547-25.792-25.792z" />
<glyph unicode="&#xe03c;" glyph-name="paintbrush" horiz-adv-x="704" d="M492.896 224h146.56c33.696 0 61.088 27.392 64.544 61.088v549.824c-3.456 33.696-30.848 61.088-64.544 61.088h-574.912c-33.696 0-61.088-27.392-64.544-61.088v-549.824c3.456-33.696 30.848-61.088 64.544-61.088h158.784c11.136 0 66.656-2.368 66.656-49.344 0-83.904-17.696-122.944-24.384-137.664l-1.568-3.488 12.896-5.568v-0.416l-14.304 2.88c-0.544-1.056-0.96-2.176-1.216-3.328-4.928-13.152-7.424-26.656-7.424-40.224 0.032-68.704 39.392-114.848 98.016-114.848 59.232 0 99.008 46.144 99.008 114.848 0 12.512-2.112 24.96-6.336 37.152-0.16 3.648-1.568 7.040-3.808 9.664-0.832 1.92-1.92 4-3.232 6.464-7.008 13.28-21.632 40.864-21.632 134.528 0 19.84 20.48 49.344 76.896 49.344zM32 510.112h640v-126.112h-640v126.112zM64.544 864h574.912c16.032 0 29.088-13.056 32.544-29.088v-292.768h-640v292.768c3.456 16.032 16.512 29.088 32.544 29.088zM409.344 25.152c0.896-1.696 1.664-3.104 2.976-6.048 0-0.032 0.096-0.224 0.224-0.512 0.128-0.416 0.256-0.8 0.416-1.216 4-10.016 6.016-20.32 6.016-30.528 0.032-40.064-17.568-82.848-66.976-82.848-48.672 0-65.984 42.784-65.984 82.848 0 10.208 2.016 20.512 6.016 30.528 0.128 0.384 0.288 0.736 0.384 1.12 0.448 0.96 0.992 2.176 1.056 2.304l1.344 2.976c7.424 16.448 27.232 60.032 27.232 150.88-0.064 64.224-62.048 81.344-99.648 81.344 0 0 0 0-0.032 0h-157.824c-16.032 0-29.088 13.056-32.544 29.088v66.912h640v-66.912c-3.456-16.032-16.512-29.088-32.544-29.088h-146.56c-79.904 0-108.896-48.672-108.896-81.344 0-101.6 17.12-133.984 25.344-149.504z" />
<glyph unicode="&#xe03d;" glyph-name="magnifying-glass" d="M336 896c-185.28 0-336-150.72-336-336s150.72-336 336-336c87.2 0 166.496 33.664 226.272 88.32 0.704-1.248 1.344-2.56 2.432-3.648l68.832-68.832c-5.76-9.728-9.024-20.736-9.024-32.352 0-17.088 6.656-33.152 18.752-45.248l271.52-271.52c12.064-12.064 28.128-18.72 45.216-18.72s33.152 6.656 45.248 18.752 18.752 28.16 18.752 45.248-6.656 33.152-18.752 45.248l-271.52 271.52c-20.288 20.288-53.088 23.328-77.44 9.568l-68.96 68.96c-1.088 1.088-2.368 1.728-3.648 2.432 54.656 59.776 88.32 139.072 88.32 226.272 0 185.28-150.72 336-336 336zM711.104 230.144l271.52-271.52c6.048-6.048 9.376-14.080 9.376-22.624s-3.328-16.576-9.376-22.624c-12.128-12.064-33.12-12.064-45.248 0l-271.52 271.52c-6.016 6.048-9.376 14.080-9.376 22.624s3.328 16.576 9.376 22.624c6.048 6.016 14.080 9.376 22.624 9.376s16.544-3.328 22.624-9.376zM336 256c-167.616 0-304 136.384-304 304s136.384 304 304 304 304-136.384 304-304-136.384-304-304-304zM336 800c-132.352 0-240-107.648-240-240s107.648-240 240-240 240 107.648 240 240-107.648 240-240 240zM336 352c-114.688 0-208 93.312-208 208s93.312 208 208 208 208-93.312 208-208-93.312-208-208-208z" />
<glyph unicode="&#xe03e;" glyph-name="circle-compass" horiz-adv-x="736" d="M368.448 704c8.832 0 16 7.168 16 16v48h15.552c8.832 0 16 7.168 16 16v96c0 8.832-7.168 16-16 16h-64c-8.832 0-16-7.168-16-16v-96c0-8.832 7.168-16 16-16h16.448v-48c0-8.832 7.136-16 16-16zM352 864h32v-64h-32v64zM8.576-122.144c2.368-1.248 4.896-1.856 7.424-1.856 5.76 0 11.328 3.136 14.144 8.576l137.344 261.536c61.6-30.944 129.888-47.68 200.928-47.68 70.848 0 139.008 16.672 200.48 47.456l136.896-261.312c2.88-5.44 8.448-8.576 14.176-8.576 2.496 0 5.056 0.608 7.424 1.824 7.808 4.128 10.848 13.792 6.752 21.632l-137.216 261.92c31.712 18.88 61.504 41.344 88.256 68.096 31.2 31.2 31.2 81.952 0 113.12-30.24 30.24-83.008 30.176-113.12 0-15.136-15.136-31.808-28.16-49.44-39.36l-75.456 144.032c29.216 23.328 48.352 58.784 48.352 98.976 0 70.080-57.024 127.136-127.136 127.136s-127.040-57.056-127.040-127.168c0-40.16 19.072-75.584 48.224-98.912l-75.616-143.936c-17.536 11.2-34.112 24.16-49.152 39.2-30.24 30.24-83.008 30.176-113.12 0-31.2-31.2-31.2-81.952 0-113.12 26.624-26.624 56.288-49.024 87.84-67.84l-137.664-262.144c-4.128-7.84-1.12-17.504 6.72-21.6zM108.224 334.016c12.832 0 24.896-4.992 33.984-14.048 60.352-60.352 140.672-93.568 226.24-93.568s165.952 33.216 226.304 93.568c18.112 18.144 49.76 18.080 67.872 0 18.72-18.72 18.72-49.152 0-67.872-78.464-78.432-182.976-121.664-294.176-121.664-111.264 0-215.68 43.232-294.112 121.664-18.72 18.72-18.72 49.152 0 67.872 9.024 9.024 21.056 14.048 33.888 14.048zM273.344 546.208c0 52.448 42.656 95.136 95.104 95.136s95.136-42.688 95.136-95.136-42.688-95.136-95.136-95.136-95.104 42.72-95.104 95.136zM316.768 430.304c15.808-7.072 33.248-11.232 51.68-11.232 18.368 0 35.744 4.096 51.52 11.136l74.72-142.624c-38.848-18.944-81.696-29.248-126.24-29.248-44.672 0-87.616 10.336-126.528 29.376l74.848 142.592z" />
<glyph unicode="&#xe03f;" glyph-name="linegraph" horiz-adv-x="1344" d="M1248 896c-52.928 0-96-43.072-96-96 0-28.416 12.672-53.728 32.352-71.328l-281.6-448.992c-11.872 5.28-24.96 8.32-38.752 8.32-27.776 0-52.608-12.032-70.176-30.944l-290.336 183.84c5.376 11.968 8.512 25.152 8.512 39.104 0 52.928-43.072 96-96 96s-96-43.072-96-96c0-28.928 13.12-54.592 33.408-72.192l-220.64-351.2c-11.328 4.736-23.744 7.392-36.768 7.392-52.928 0-96-43.072-96-96s43.072-96 96-96 96 43.072 96 96c0 28.416-12.64 53.696-32.32 71.296l220.928 351.68c10.976-4.416 22.88-6.976 35.392-6.976 27.488 0 52.128 11.744 69.632 30.304l290.496-183.936c-5.152-11.776-8.128-24.704-8.128-38.368 0-52.928 43.072-96 96-96s96 43.072 96 96c0 27.616-11.872 52.352-30.624 69.888l281.92 449.472c11.328-4.704 23.712-7.36 36.704-7.36 52.928 0 96 43.072 96 96s-43.072 96-96 96zM160-32c0-35.296-28.704-64-64-64s-64 28.704-64 64 28.704 64 64 64 64-28.704 64-64zM416 416c-35.296 0-64 28.704-64 64s28.704 64 64 64 64-28.704 64-64-28.704-64-64-64zM864 128c-35.296 0-64 28.704-64 64s28.704 64 64 64 64-28.704 64-64-28.704-64-64-64zM1248 736c-35.296 0-64 28.704-64 64s28.704 64 64 64 64-28.704 64-64-28.704-64-64-64z" />
<glyph unicode="&#xe040;" glyph-name="mic3" horiz-adv-x="480" d="M224 127.776v-127.776h-94.912c-36.512 0-64-27.488-64-64v-48c0-8.832 7.168-16 16-16h320c8.832 0 16 7.168 16 16v45.6c0 37.248-28.128 66.4-64 66.4h-97.088v127.776c127.136 8.896 226.176 113.92 226.176 242.048v60.384c0 9.44-7.648 17.088-17.088 17.088s-17.088-7.68-17.088-17.12v-60.384c0-115.104-92.8-208.704-206.912-208.704s-206.912 93.632-206.912 208.704v60.384c0 9.44-7.648 17.088-17.088 17.088s-17.088-7.648-17.088-17.088v-60.384c0-128.096 99.040-233.12 224-242.016zM385.088-66.4v-29.6h-288v32c0 18.848 13.152 32 32 32h224c18.24 0 32-14.784 32-34.4zM241.088 897.088c-80 0-145.088-65.888-145.088-146.912v-380.384c0-80.992 65.088-146.912 145.088-146.912s145.088 65.92 142.912 146.912v380.384c2.176 81.024-62.912 146.912-142.912 146.912zM352 369.824c0-62.144-49.76-112.704-110.912-112.704s-113.088 50.528-113.088 112.704v380.352c0 62.144 51.936 112.704 113.088 112.704s110.912-50.528 110.912-112.704v-380.352z" />
<glyph unicode="&#xe041;" glyph-name="strategy" horiz-adv-x="736" d="M704-112c0 8.832-7.168 16-16 16h-576c-8.832 0-16-7.168-16-16s7.168-16 16-16h576c8.832 0 16 7.168 16 16zM40.768 596.672c-13.376-8.896-33.664-35.968-14.432-74.432 15.968-31.904 49.28-70.944 84.704-81.248 18.048-5.312 35.84-3.104 51.36 6.272 35.168 21.056 76.704 49.536 94.304 61.76 22.208-11.232 50.24-13.568 78.72-6.24 0.128 0.032 0.256 0.096 0.384 0.128-1.664-52.832-19.552-85.824-107.008-167.040-77.952-72.352-124.192-167.392-123.744-254.272 0.32-56.992 21.088-105.92 60.16-141.408 2.976-2.72 6.816-4.192 10.784-4.192h448c8.832 0 16 7.168 16 16s-7.168 16-16 16h-441.632c-29.408 28.96-45.024 68.16-45.28 113.76-0.416 76.864 43.104 165.28 113.504 230.656 93.28 86.592 117.408 127.616 117.408 199.584 0 1.312-0.448 2.464-0.736 3.68 17.504 9.44 32.64 21.92 42.976 37.024 12.96 18.88 40.864 67.36 20.16 110.272-3.84 7.904-13.408 11.264-21.376 7.424-7.936-3.84-11.296-13.408-7.424-21.376 9.312-19.296 2.688-48.544-17.728-78.24-11.776-17.152-32.832-31.008-56.352-37.024-23.904-6.112-46.624-3.424-62.464 7.424-5.536 3.776-12.8 3.744-18.272-0.128-0.576-0.384-56.864-40.032-100.768-66.368-8.032-4.8-16.512-5.824-25.984-3.008-24.768 7.232-52 38.784-65.024 64.832-10.528 21.056 0.256 31.104 5.152 34.688 110.304 95.264 165.664 194.24 167.936 198.432 2.112 3.904 2.56 8.512 1.152 12.768-0.16 0.48-11.2 34.016-17.28 65.056 33.472-20.16 91.040-48.32 150.976-48.32 83.328 0 277.056-31.104 277.056-319.232 0-1.568-0.288-158.208-63.040-330.464-3.040-8.288 1.248-17.472 9.568-20.512 1.824-0.608 3.648-0.928 5.472-0.928 6.528 0 12.672 4.032 15.040 10.528 64.672 177.536 64.992 334.912 64.96 341.472 0 325.856-236.576 351.168-309.056 351.168-80.288 0-160.384 60.896-161.152 61.536-4.896 3.68-11.36 4.288-16.864 1.632-5.472-2.688-8.928-8.256-8.928-14.336 0-31.392 14.88-82.176 20.672-100.704-13.376-22.336-66.112-104.992-155.904-182.624zM559.52 846.72c-51.232 34.528-108.512 49.28-191.52 49.28-8.832 0-16-7.168-16-16s7.168-16 16-16c76.16 0 128.096-13.088 173.664-43.808 74.048-49.984 162.336-149.568 162.336-340.192 0-46.432 0-110.016-31.52-236.128-2.112-8.576 3.072-17.248 11.648-19.392 1.312-0.32 2.592-0.48 3.872-0.48 7.2 0 13.728 4.832 15.52 12.128 32.48 129.888 32.48 195.776 32.48 243.872 0 204.672-95.968 312.416-176.48 366.72z" />
<glyph unicode="&#xe042;" glyph-name="beaker" horiz-adv-x="864" d="M560 864c8.832 0 16 7.168 16 16s-7.168 16-16 16h-288c-8.832 0-16-7.168-16-16s7.168-16 16-16h288zM31.68 11.68c-34.368-48.352-30.528-79.936-21.248-97.92 9.824-19.040 35.424-41.76 101.568-41.76h640c66.144 0 91.744 22.72 101.568 41.792 9.28 17.984 13.12 49.568-20.736 97.088l-199.008 318.4-2.816 3.968c-14.304 20.416-87.008 146.048-87.008 250.752v232c0 8.832-7.168 16-16 16h-224c-8.832 0-16-7.168-16-16v-232c0-111.712-78.88-254.624-79.776-256.16l-176.544-316.16zM825.152-71.52c-8.032-15.584-34.688-24.48-73.152-24.48h-640c-38.464 0-65.12 8.896-73.152 24.48-7.328 14.208-0.64 37.184 19.84 66.112l159.968 286.336 0.224-0.128c29.12-16.8 59.232-34.176 119.008-34.176s89.92 17.344 119.008 34.112c26.656 15.36 51.808 29.888 103.040 29.888 19.424 0 36.256-2.4 51.744-6.72l194.56-310.784c19.552-27.456 26.24-50.432 18.912-64.64zM320 584v216h192v-216c0-90.88 48.512-193.344 76.928-243.264-9.28 1.056-18.72 1.888-28.96 1.888-59.808 0-89.92-17.344-119.008-34.112-26.656-15.36-51.808-29.888-103.040-29.888s-76.384 14.528-103.008 29.888l-0.608 0.352 1.472 2.624c0.8 1.28 84.224 149.952 84.224 272.512z" />
<glyph unicode="&#xe043;" glyph-name="caution" horiz-adv-x="1120" d="M697.568 801.472c-35.36 60.928-83.488 94.528-135.52 94.528s-100.192-33.6-135.552-94.528l-392.608-676.256c-35.84-62.304-39.68-127.008-10.56-177.472 27.712-48 82.080-75.616 149.248-75.744h778.912c0 0 0 0 0.032 0 67.264 0.128 121.728 27.648 149.344 75.552 28.96 50.144 25.056 114.592-10.72 176.8l-392.576 677.12zM1073.184-36.448c-21.792-37.76-66.144-59.456-121.728-59.552h-778.848c-55.392 0.096-99.68 21.888-121.568 59.744-23.264 40.32-19.392 93.344 10.56 145.472l392.576 676.192c29.408 50.688 67.712 78.592 107.872 78.592s78.464-27.904 107.84-78.592l392.576-677.024c29.92-52.032 33.824-104.832 10.72-144.832zM562.048 256c8.832 0 16 7.168 16 16v320c0 8.832-7.168 16-16 16s-16-7.168-16-16v-320c0-8.832 7.168-16 16-16zM560 176c-35.296 0-64-28.704-64-64s28.704-64 64-64 64 28.704 64 64-28.704 64-64 64zM560 80c-17.632 0-32 14.336-32 32s14.368 32 32 32 32-14.336 32-32-14.368-32-32-32z" />
<glyph unicode="&#xe044;" glyph-name="recycle2" d="M388.736 810.688l-98.016-145.76c-4.928-7.328-2.976-17.28 4.352-22.208s17.28-2.976 22.208 4.352l98.592 146.656c26.24 45.344 60.416 70.272 96.128 70.272s69.888-24.928 96.096-70.208l176.448-307.2-125.44 25.088c-8.736 1.824-17.12-3.872-18.816-12.576-1.728-8.672 3.904-17.088 12.544-18.816l160-32c1.088-0.192 2.144-0.288 3.168-0.288 2.528 0 4.896 0.8 7.072 1.888 0.288 0.128 0.608 0.064 0.896 0.224 0.32 0.192 0.512 0.512 0.832 0.736 1.056 0.704 1.984 1.536 2.848 2.496 0.512 0.544 1.024 1.024 1.44 1.632 0.672 0.992 1.12 2.080 1.568 3.2 0.288 0.736 0.672 1.408 0.832 2.176 0.032 0.192 0.16 0.32 0.192 0.512l32 160c1.728 8.672-3.904 17.088-12.544 18.816-8.736 1.824-17.12-3.872-18.816-12.576l-23.648-118.24-172.832 300.928c-32.256 55.584-76.224 86.208-123.84 86.208s-91.584-30.624-123.264-85.312zM320-16.608c0 8.832-7.168 16-16 16h-143.968c-49.504 0.096-89.088 19.488-108.544 53.248-20.736 35.936-17.248 83.328 9.6 130.016l176.384 308.608 51.68-129.248c2.496-6.208 8.512-10.016 14.848-10.016 1.984 0 4 0.384 5.952 1.152 8.192 3.296 12.192 12.608 8.928 20.768l-64 160c-0.32 0.832-0.896 1.44-1.344 2.176-0.416 0.672-0.704 1.344-1.216 1.984-1.12 1.344-2.4 2.4-3.808 3.296-0.224 0.16-0.352 0.384-0.576 0.512-0.032 0.032-0.064 0-0.096 0.032-1.792 1.024-3.744 1.632-5.824 1.888-0.352 0.032-0.672-0.064-1.024-0.032-1.376 0.096-2.72 0.192-4.128-0.128l-160-32c-8.672-1.728-14.272-10.144-12.544-18.816s10.016-14.304 18.816-12.576l125.504 25.088-175.36-306.816c-32.672-56.8-36.128-115.84-9.536-161.952 25.344-43.872 74.976-69.12 136.224-69.248h144c8.864 0.064 16.032 7.232 16.032 16.064zM1000.448 36.928c26.336 45.632 22.784 104.256-8.992 159.36l-64.8 146.176c-3.584 8.064-13.024 11.776-21.12 8.128-8.064-3.584-11.712-13.024-8.128-21.12l65.568-147.648c26.688-46.464 30.272-93.44 9.792-128.896-19.36-33.568-59.008-52.832-108.768-52.928l-329.92-0.544 69.216 69.216c6.24 6.24 6.24 16.384 0 22.624s-16.384 6.24-22.624 0l-96-96c-3.2-3.2-4.704-7.424-4.64-11.616 0-0.096-0.064-0.192-0.064-0.32 0-5.184 2.656-9.6 6.528-12.512l94.176-94.176c3.136-3.104 7.232-4.672 11.328-4.672s8.192 1.568 11.328 4.672c6.24 6.24 6.24 16.384 0 22.624l-68.16 68.16 328.864 0.544c61.44 0.128 111.168 25.248 136.416 68.928z" />
<glyph unicode="&#xe045;" glyph-name="anchor2" horiz-adv-x="1120" d="M25.984 291.328l70.016 70.048v-25.376c0-242.848 221.152-464 464-464s464 221.152 464 464v24.704l70.688-70.688c3.136-3.136 7.232-4.672 11.328-4.672s8.192 1.568 11.328 4.672c6.24 6.24 6.24 16.384 0 22.624l-96.576 96.576c-2.944 4-7.424 6.784-12.768 6.784-1.44 0-2.688-0.448-4.032-0.8-2.944-0.608-5.792-1.728-7.968-3.872l-97.344-97.344c-6.24-6.24-6.24-16.384 0-22.624s16.384-6.24 22.624 0l70.72 70.688v-26.048c0-220.736-196.32-421.664-416-431.104v607.104h272c8.832 0 16 7.168 16 16s-7.168 16-16 16h-272v129.632c54.144 7.84 96 54.112 96 110.368 0 61.76-50.24 112-112 112s-112-50.24-112-112c0-56.256 41.856-102.528 96-110.368v-129.632h-272c-8.832 0-16-7.168-16-16s7.168-16 16-16h272v-607.104c-219.68 9.44-416 210.368-416 431.104v25.376l71.36-71.36c3.136-3.136 7.232-4.672 11.328-4.672s8.192 1.568 11.328 4.672c6.24 6.24 6.24 16.384 0 22.624l-98.656 98.624c-2.912 2.944-6.944 4.736-11.36 4.736s-8.448-1.792-11.328-4.704l-97.312-97.312c-6.24-6.24-6.24-16.384 0-22.624s16.384-6.272 22.624-0.032zM560 864c44.096 0 80-35.872 80-80s-35.904-80-80-80-80 35.872-80 80 35.904 80 80 80z" />
<glyph unicode="&#xe046;" glyph-name="profile-male" horiz-adv-x="1152" d="M16-127.456c8.576-2.144 17.344 2.816 19.584 11.328 32.96 122.976 166.912 154.848 246.976 173.92 20.064 4.768 35.904 8.544 46.208 12.992 91.2 39.584 120.928 103.264 129.824 149.728 1.088 5.6-0.928 11.36-5.28 15.136-47.488 40.992-87.552 102.528-112.832 173.312-0.704 2.016-1.824 3.872-3.296 5.472-33.44 36.352-52.64 74.784-52.64 105.408 0 17.888 6.752 29.888 21.952 38.944 4.64 2.784 7.552 7.68 7.776 13.056 7.072 163.008 123.168 291.328 265.568 292.16 0.16 0 3.264-0.224 3.424-0.224 143.104-1.984 258.464-133.056 262.592-298.368 0.128-4.576 2.176-8.864 5.696-11.808 10.016-8.48 14.688-19.232 14.688-33.824 0-25.632-13.664-57.152-38.432-88.704-1.184-1.504-2.080-3.232-2.688-5.056-25.6-81.152-71.552-152.8-126.016-196.64-4.608-3.712-6.784-9.664-5.696-15.456 8.896-46.432 38.624-110.080 129.824-149.728 10.784-4.672 27.52-8.32 48.736-12.896 79.264-17.152 211.904-45.92 244.448-167.424 1.92-7.136 8.384-11.84 15.424-11.84 1.376 0 2.752 0.192 4.16 0.544 8.544 2.304 13.6 11.072 11.328 19.616-37.6 140.384-187.872 172.928-268.576 190.4-18.72 4.064-34.88 7.552-42.752 11.008-59.52 25.856-96.192 65.248-109.152 117.28 55.264 47.456 101.504 120.672 127.936 202.784 28.064 36.48 43.488 74.048 43.488 106.144 0 21.408-6.912 39.264-20.608 53.216-7.616 179.328-135.584 320.544-294.4 322.816l-4.768 0.064c-155.936-0.832-284.448-138.336-295.68-314.56-20.032-14.72-30.208-35.36-30.208-61.568 0-37.856 21.408-83.136 58.88-124.672 25.888-71.136 66.016-133.632 113.792-177.376-12.896-52.224-49.6-91.744-109.248-117.632-7.712-3.36-23.072-7.040-40.864-11.264-81.312-19.328-232.608-55.328-270.496-196.704-2.272-8.544 2.784-17.28 11.328-19.584z" />
</font>
</defs>
</svg>
